Индиана Джонс и колесо судьбы / Indiana Jones and the Dial of Destiny (2023) BDRip 1080p [DUB] от R.G.Generalfilm | MovieDalen

Reply to topic
 
Author Message

White Smoke ®

Gender: Male

Longevity: 5 years 3 months

Posts: 271

Post 03-Dec-2023 16:49

[Quote]

Индиана Джонс и колесо судьбы / Indiana Jones and the Dial of Destiny Год выпуска: 2023
Жанр: фантастика, боевик, приключения
Выпущено: США | Amblin Entertainment, Lucasfilm Ltd., Paramount Pictures
Режиссер: Джеймс Мэнголд
В ролях: Харрисон Форд, Фиби Уоллер-Бридж, Мадс Миккельсен, Антонио Бандерас, Джон Рис-Дэвис, Тоби Джонс, Бойд Холбрук, Карен Аллен, Шонетт Рене Уилсон, Томас Кречман
О фильме:Неувядающий авантюрист и пытливый археолог-исследователь по-прежнему в седле. На этот раз ему придётся столкнуться с непростой задачей, которую решить на раз-два вряд ли получится. Но Индиана Джонс не даст слабину и не отступит при виде даже самой безнадёжной ситуации.
Качество: BDRip 1080p
Видео: MPEG-4AVC, 1920x804 (2.40:1), 23.976 fps, 10.2 Mb/s (0.276 bit/pixel)
Аудио: русский 48 kHz, AC3, 5.1, 256 Kbps Дублированный | MovieDalen
Аудио #02: 48 kHz, AC3, 5.1, 640 Kbps Дублированный | Flarrow Films
Аудио #03: 48 kHz, E-AC3, 5.1, 768 Kbps Дублированный | HotVoice41
Продолжительность: 02:34:28
Перевод : Дублированный
Субтитры: Русские (Forced)

Скриншоты


MediaInfo

General
Unique ID : 252524764097033778646278738734873454295 (0xBDFA801FF0E1362792AB611AAEDE26D7)
Complete name : D:\Indiana.Jones.and.the.Dial.of.Destiny.2023.BDRip-1080p.Rip.by.White Smoke.R.G.Generalfilm.mkv
Format : Matroska
Format version : Version 4
File size : 12.8 GiB
Duration : 2 h 34 min
Overall bit rate : 11.9 Mb/s
Frame rate : 23.976 FPS
Movie name : Indiana.Jones.and.the.Dial.of.Destiny.2023.BDRip-1080p.Rip.by.White Smoke.R.G.Generalfilm.mkv
Encoded date : 2023-12-02 12:10:55 UTC
Writing application : mkvmerge v6.8.0 ('Theme for Great Cities') 64bit built on Mar 2 2014 21:34:26
Writing library : libebml v1.3.0 + libmatroska v1.4.1
Video
ID : 1
Format : AVC
Format/Info : Advanced Video Codec
Format profile : High@L4.1
Format settings : CABAC / 4 Ref Frames
Format settings, CABAC : Yes
Format settings, Reference : 4 frames
Codec ID : V_MPEG4/ISO/AVC
Duration : 2 h 34 min
Bit rate : 10.2 Mb/s
Width : 1 920 pixels
Height : 804 pixels
Display aspect ratio : 2.40:1
Frame rate mode : Constant
Frame rate : 23.976 (24000/1001) FPS
Color space : YUV
Chroma subsampling : 4:2:0
Bit depth : 8 bits
Scan type : Progressive
Bits/(Pixel*Frame) : 0.276
Stream size : 10.7 GiB (84%)
Writing library : x264 core 148 r2638 7599210
Encoding settings : cabac=1 / ref=4 / deblock=1:-2:-1 / analyse=0x3:0x133 / me=umh / subme=10 / psy=1 / psy_rd=1.00:0.15 / mixed_ref=1 / me_range=32 / chroma_me=0 / trellis=2 / 8x8dct=1 / cqm=0 / deadzone=21,11 / fast_pskip=0 / chroma_qp_offset=-5 / threads=25 / lookahead_threads=6 / sliced_threads=0 / nr=0 / decimate=1 / interlaced=0 / bluray_compat=0 / constrained_intra=0 / bframes=10 / b_pyramid=2 / b_adapt=2 / b_bias=0 / direct=1 / weightb=1 / open_gop=0 / weightp=2 / keyint=240 / keyint_min=23 / scenecut=40 / intra_refresh=0 / rc_lookahead=40 / rc=2pass / mbtree=0 / bitrate=10200 / ratetol=1.0 / qcomp=0.65 / qpmin=0 / qpmax=69 / qpstep=4 / cplxblur=20.0 / qblur=0.5 / vbv_maxrate=62500 / vbv_bufsize=78125 / nal_hrd=none / filler=0 / ip_ratio=1.40 / pb_ratio=1.30 / aq=1:1.00
Language : English
Default : Yes
Forced : No
Audio #1
ID : 2
Format : AC-3
Format/Info : Audio Coding 3
Commercial name : Dolby Digital
Codec ID : A_AC3
Duration : 2 h 34 min
Bit rate mode : Constant
Bit rate : 256 kb/s
Channel(s) : 6 channels
Channel layout : L R C LFE Ls Rs
Sampling rate : 44.1 kHz
Frame rate : 28.711 FPS (1536 SPF)
Compression mode : Lossy
Stream size : 283 MiB (2%)
Title : Dub_MovieDalen
Language : Russian
Service kind : Complete Main
Default : Yes
Forced : No
Audio #2
ID : 3
Format : AC-3
Format/Info : Audio Coding 3
Commercial name : Dolby Digital
Codec ID : A_AC3
Duration : 2 h 34 min
Bit rate mode : Constant
Bit rate : 640 kb/s
Channel(s) : 6 channels
Channel layout : L R C LFE Ls Rs
Sampling rate : 48.0 kHz
Frame rate : 31.250 FPS (1536 SPF)
Compression mode : Lossy
Stream size : 707 MiB (5%)
Title : Dub_Flarrow Films
Language : Russian
Service kind : Complete Main
Default : No
Forced : No
Audio #3
ID : 4
Format : E-AC-3
Format/Info : Enhanced AC-3
Commercial name : Dolby Digital Plus
Codec ID : A_EAC3
Duration : 2 h 34 min
Bit rate mode : Constant
Bit rate : 768 kb/s
Channel(s) : 6 channels
Channel layout : L R C LFE Ls Rs
Sampling rate : 48.0 kHz
Frame rate : 31.250 FPS (1536 SPF)
Compression mode : Lossy
Stream size : 849 MiB (6%)
Title : Dub_HotVoice41
Language : Russian
Service kind : Complete Main
Default : No
Forced : No
Text #1
ID : 5
Format : UTF-8
Codec ID : S_TEXT/UTF8
Codec ID/Info : UTF-8 Plain Text
Title : Forced
Language : Russian
Default : No
Forced : No
Text #2
ID : 6
Format : UTF-8
Codec ID : S_TEXT/UTF8
Codec ID/Info : UTF-8 Plain Text
Title : Forced _HotVoice41
Language : Russian
Default : No
Forced : No
Menu
00:00:00.000 : en:Chapter 01
00:05:03.344 : en:Chapter 02
00:08:45.024 : en:Chapter 03
00:14:42.798 : en:Chapter 04
00:21:30.914 : en:Chapter 05
00:24:10.365 : en:Chapter 06
00:27:01.620 : en:Chapter 07
00:33:06.693 : en:Chapter 08
00:40:32.972 : en:Chapter 09
00:46:22.946 : en:Chapter 10
00:51:26.666 : en:Chapter 11
00:54:28.807 : en:Chapter 12
00:59:33.987 : en:Chapter 13
01:02:03.302 : en:Chapter 14
01:08:56.549 : en:Chapter 15
01:13:32.116 : en:Chapter 16
01:20:09.137 : en:Chapter 17
01:26:07.162 : en:Chapter 18
01:34:24.533 : en:Chapter 19
01:36:46.175 : en:Chapter 20
01:40:40.159 : en:Chapter 21
01:48:04.478 : en:Chapter 22
01:55:35.386 : en:Chapter 23
02:02:19.790 : en:Chapter 24
02:05:13.130 : en:Chapter 25
02:12:30.817 : en:Chapter 26
02:17:34.871 : en:Chapter 27
02:23:22.594 : en:Chapter 28
Релиз от:
[Profile] [PM]
Display posts:    
Reply to topic

Current time is: 21-Feb 03:37

All times are UTC + 3



You cannot post new topics in this forum
You cannot reply to topics in this forum
You cannot edit your posts in this forum
You cannot delete your posts in this forum
You cannot vote in polls in this forum
You cannot attach files in this forum
You cannot download files in this forum