Порочная связь [1-4 серии из 4] (2023) WEB-DL 1080p от Files-x

Reply to topic
 
Author Message

bond74 ®

Gender: Male

Longevity: 5 years 5 months

Posts: 2365

Post 27-Feb-2024 19:25

[Quote]

Порочная связьа
Год выпуска: 2023
Жанр: Мелодрама, драма
Выпущено: Россия, Кинокомпания ООО «Феникс-Фильм»
Режиссер: Дмитрий Пантелеев
В ролях: Ксения Роменкова, Владислав Резник, Антон Даниленко, Карина Балашова, Даниэль Миньков, Александр Никулин, Анастасия Теплинская, Полина Давыдова, Сергей Барышев, Леонид Ардо.
О фильме: В некогда счастливом мире Людмилы, в котором царили семейная гармония и стабильность, внезапно вспыхнул яркий, но опасный огонь. Из-за разлада с мужем, ослеплённая сияньем нового чувства, она поддалась соблазну и попала в объятия молодого и привлекательного коллеги Романа. Сначала эта связь была лишь мимолетной интрижкой, которая должна была развеять скуку и рутину. Но чем больше времени Людмила проводила с Романом, тем сильнее она погружалась в омут страсти. Их отношения стремительно развивались, угрожая разрушить все, что она так долго и кропотливо строила. По мере того как роман развивался, Люда начала осознавать, что она запуталась в паутине лжи и предательства. Роман оказался не тем, кем казался. Он начал проявлять нездоровый интерес к ее семье, пытаясь очаровать ее дочь и завести дружбу с ее мужем. Люда понимала, что Роман ведет двойную игру, и это вызывало в ней сильное беспокойство. В то же время на работе ситуация сложилась не менее напряженно. Романа пророчили на место Людмилы, что создавало еще больше проблем и усиливало чувство предательства. Осознав всю серьезность ситуации, Людмила попыталась разорвать отношения с Романом, но у Романа на этот счёт были свои планы…

Качество:WEB-DL 1080p
Видео: MPEG-4 AVC, ~ 3698 Кбит/с, 1920x1080, 25 кадр/с
Аудио: AC3, 2 ch, 192 Кбит/с
Продолжительность: 4 x ~ 00:46:22
Перевод: Не требуется
Субтитры: Нет

Скриншоты




MediaInfo

Общее
Уникальный идентификатор : 215690987913214886442013805914063092117 (0xA24492BF925CC737861FCECC19EFB995)
Полное имя : C:\ШОУ\Порочная связь.2023.WEB-DL 1080p.Files-x\03. Порочная связь.2023.WEB-DL 1080p.Files-x.mkv
Формат : Matroska
Версия формата : Version 4
Размер файла : 1,33 Гбайт
Продолжительность : 48 м. 26 с.
Общий поток : 3 934 Кбит/сек
Частота кадров : 25,000 кадров/сек
Дата кодирования : 2024-02-24 15:50:37 UTC
Программа кодирования : mkvmerge v7.8.0 ('River Man') 32bit built on Apr 3 2015 12:11:22
Библиотека кодирования : libebml v1.3.1 + libmatroska v1.4.2
Видео
Идентификатор : 1
Формат : AVC
Формат/Информация : Advanced Video Codec
Профиль формата : High@L4.1
Настройки формата : CABAC / 4 Ref Frames
Параметр CABAC формата : Да
Параметр RefFrames формата : 4 кадра
Параметр GOP формата : M=4, N=50
Идентификатор кодека : V_MPEG4/ISO/AVC
Продолжительность : 48 м. 26 с.
Битрейт : 3 740 Кбит/сек
Ширина : 1 920 пикселей
Высота : 1 080 пикселей
Соотношение сторон : 16:9
Описание активного формата : Full frame 16:9 image
Режим частоты кадров : Постоянный
Частота кадров : 25,000 кадров/сек
Стандарт вещания : PAL
Цветовое пространство : YUV
Субдискретизация насыщенности : 4:2:0
Битовая глубина : 8 бит
Тип развёртки : Прогрессивная
Бит/(Пиксели*Кадры) : 0.072
Размер потока : 1,27 Гбайт (95%)
Default : Да
Forced : Нет
Цветовой диапазон : Limited
Основные цвета : BT.709
Характеристики трансфера : BT.709
Коэффициенты матрицы : BT.709
Аудио
Идентификатор : 2
Формат : AC-3
Формат/Информация : Audio Coding 3
Коммерческое название : Dolby Digital
Идентификатор кодека : A_AC3
Продолжительность : 48 м. 26 с.
Вид битрейта : Постоянный
Битрейт : 192 Кбит/сек
Каналы : 2 канала
Channel layout : L R
Частота : 48,0 КГц
Частота кадров : 31,250 кадров/сек (1536 SPF)
Метод сжатия : С потерями
Размер потока : 66,5 Мбайт (5%)
Service kind : Complete Main
Default : Да
Forced : Нет
Релиз от:

Release was prepared by RG Files-x

[Profile] [PM]
Display posts:    
Reply to topic

Current time is: 24-Apr 09:17

All times are UTC + 3



You cannot post new topics in this forum
You cannot reply to topics in this forum
You cannot edit your posts in this forum
You cannot delete your posts in this forum
You cannot vote in polls in this forum
You cannot attach files in this forum
You cannot download files in this forum