Порочная связь [1-4 серии из 4] (2023) WEB-DLRip от Files-x

Reply to topic
 
Author Message

bond74 ®

Gender: Male

Longevity: 5 years 5 months

Posts: 2365

Post 27-Feb-2024 19:23

[Quote]

Порочная связьа
Год выпуска: 2023
Жанр: Мелодрама, драма
Выпущено: Россия, Кинокомпания ООО «Феникс-Фильм»
Режиссер: Дмитрий Пантелеев
В ролях: Ксения Роменкова, Владислав Резник, Антон Даниленко, Карина Балашова, Даниэль Миньков, Александр Никулин, Анастасия Теплинская, Полина Давыдова, Сергей Барышев, Леонид Ардо.
О фильме: В некогда счастливом мире Людмилы, в котором царили семейная гармония и стабильность, внезапно вспыхнул яркий, но опасный огонь. Из-за разлада с мужем, ослеплённая сияньем нового чувства, она поддалась соблазну и попала в объятия молодого и привлекательного коллеги Романа. Сначала эта связь была лишь мимолетной интрижкой, которая должна была развеять скуку и рутину. Но чем больше времени Людмила проводила с Романом, тем сильнее она погружалась в омут страсти. Их отношения стремительно развивались, угрожая разрушить все, что она так долго и кропотливо строила. По мере того как роман развивался, Люда начала осознавать, что она запуталась в паутине лжи и предательства. Роман оказался не тем, кем казался. Он начал проявлять нездоровый интерес к ее семье, пытаясь очаровать ее дочь и завести дружбу с ее мужем. Люда понимала, что Роман ведет двойную игру, и это вызывало в ней сильное беспокойство. В то же время на работе ситуация сложилась не менее напряженно. Романа пророчили на место Людмилы, что создавало еще больше проблем и усиливало чувство предательства. Осознав всю серьезность ситуации, Людмила попыталась разорвать отношения с Романом, но у Романа на этот счёт были свои планы…

Качество: WEB-DLRip
Видео: XviD, ~ 1600 Кбит/с, 720х400, 25 кадр/с
Аудио: AC3, 2 ch, 192 Кбит/с
Продолжительность: 4 x ~ 00:46:22
Перевод: Не требуется
Субтитры: Нет

Скриншоты



MediaInfo

Общее
Полное имя : C:\ШОУ\Порочная связь.2023.WEB-DLRip.Files-x\02. Порочная связь.2023.WEB-DLRip.Files-x.avi
Формат : AVI
Формат/Информация : Audio Video Interleave
Настройки формата : BitmapInfoHeader / WaveFormatEx
Размер файла : 616 Мбайт
Продолжительность : 48 м. 13 с.
Общий поток : 1 786 Кбит/сек
Частота кадров : 25,000 кадров/сек
Программа кодирования : VirtualDubMod 1.5.10.3 | www.virtualdub-fr.org || (build 2550/release)
Библиотека кодирования : VirtualDubMod build 2550/release
Видео
Идентификатор : 0
Формат : MPEG-4 Visual
Профиль формата : Advanced Simple@L5
Настройки формата : BVOP1 / Custom Matrix
Параметр BVOP формата : 1
Параметр QPel формата : Нет
Параметр GMC формата : Без точки перехода
Параметр матрицы формата : Выборочная
Идентификатор кодека : XVID
Идентификатор кодека/Подсказка : XviD
Продолжительность : 48 м. 13 с.
Битрейт : 1 584 Кбит/сек
Ширина : 720 пикселей
Высота : 400 пикселей
Соотношение сторон : 16:9
Частота кадров : 25,000 кадров/сек
Цветовое пространство : YUV
Субдискретизация насыщенности : 4:2:0
Битовая глубина : 8 бит
Тип развёртки : Прогрессивная
Метод сжатия : С потерями
Бит/(Пиксели*Кадры) : 0.220
Размер потока : 546 Мбайт (89%)
Библиотека кодирования : XviD 73
Аудио
Идентификатор : 1
Формат : AC-3
Формат/Информация : Audio Coding 3
Коммерческое название : Dolby Digital
Идентификатор кодека : 2000
Продолжительность : 48 м. 13 с.
Вид битрейта : Постоянный
Битрейт : 192 Кбит/сек
Каналы : 2 канала
Channel layout : L R
Частота : 48,0 КГц
Частота кадров : 31,250 кадров/сек (1536 SPF)
Метод сжатия : С потерями
Размер потока : 66,2 Мбайт (11%)
Выравнивание : Разделение по промежуткам
Продолжительность промежутка : 40 мс. (1,00 видеокадр)
Время предзагрузки промежутка : 500 мс.
Service kind : Complete Main
Релиз от:

Release was prepared by RG Files-x

[Profile] [PM]
Display posts:    
Reply to topic

Current time is: 24-Apr 10:10

All times are UTC + 3



You cannot post new topics in this forum
You cannot reply to topics in this forum
You cannot edit your posts in this forum
You cannot delete your posts in this forum
You cannot vote in polls in this forum
You cannot attach files in this forum
You cannot download files in this forum