Другой мужчина [1-4 серии из 4] (2023) WEB-DLRip- от Files-x

Reply to topic
 
Author Message

bond74 ®

Gender: Male

Longevity: 5 years 5 months

Posts: 2365

Post 28-Feb-2024 16:16

[Quote]

Другой мужчина
Год выпуска: 2023
Жанр: Мелодрама
Выпущено: Россия, Кинокомпания ООО "ТА "Иртыш"
Режиссер: Денис Елеонский
В ролях: Ольга Боровская, Алексей Рыжков, Евгений Токарев, Анастасия Денисова, Екатерина Кожемякина, Татьяна Тимакова, Алиса Прохорова, Карина Шишлянникова, Валерий Борисов, Ирина Абросимова, Антон Никушин.
О фильме: Настя была успешной бизнесвумен, которая к сорока годам построила отличную карьеру, но смертельно устала от одиночества. Лучшая подруга считает, что ей нужно создать счастье собственными руками. Прислушавшись к этому совету, Настя решается принять предложение руки и сердца своего подчинённого. Виталий был молодым, красивым, здоровым, хватким, и к тому же ей очень симпатичен. Он обещал подарить семью и ребёнка в обмен на помощь в карьере, а любовь придёт сама собой. Настя согласилась, надеясь, что этот «коммерческий проект» принесет ей долгожданное женское счастье. Но вскоре её мечты оказываются под большим вопросом, после случайной встречи с маленькой девочкой и её отцом.
Качество: WEB-DLRip
Видео: XviD, ~ 1600 Кбит/с, 720х400, 25 кадр/с
Аудио: AC3, 2 ch, 192 Кбит/с
Продолжительность: 4 x ~ 00:51:04
Перевод: Не требуется
Субтитры: Нет

Скриншоты




MediaInfo

Общее
Полное имя : C:\ШОУ\Другой мужчина.2023.WEB-DLRip.Files-x\03. Другой мужчина.2023.WEB-DLRip.Files-x.avi
Формат : AVI
Формат/Информация : Audio Video Interleave
Настройки формата : BitmapInfoHeader / WaveFormatEx
Размер файла : 630 Мбайт
Продолжительность : 49 м. 8 с.
Общий поток : 1 793 Кбит/сек
Частота кадров : 25,000 кадров/сек
Программа кодирования : VirtualDubMod 1.5.10.3 | www.virtualdub-fr.org || (build 2550/release)
Библиотека кодирования : VirtualDubMod build 2550/release
Видео
Идентификатор : 0
Формат : MPEG-4 Visual
Профиль формата : Advanced Simple@L5
Настройки формата : BVOP1 / Custom Matrix
Параметр BVOP формата : 1
Параметр QPel формата : Нет
Параметр GMC формата : Без точки перехода
Параметр матрицы формата : Выборочная
Идентификатор кодека : XVID
Идентификатор кодека/Подсказка : XviD
Продолжительность : 49 м. 8 с.
Битрейт : 1 592 Кбит/сек
Ширина : 720 пикселей
Высота : 400 пикселей
Соотношение сторон : 16:9
Частота кадров : 25,000 кадров/сек
Цветовое пространство : YUV
Субдискретизация насыщенности : 4:2:0
Битовая глубина : 8 бит
Тип развёртки : Прогрессивная
Метод сжатия : С потерями
Бит/(Пиксели*Кадры) : 0.221
Размер потока : 559 Мбайт (89%)
Библиотека кодирования : XviD 73
Аудио
Идентификатор : 1
Формат : AC-3
Формат/Информация : Audio Coding 3
Коммерческое название : Dolby Digital
Идентификатор кодека : 2000
Продолжительность : 49 м. 8 с.
Вид битрейта : Постоянный
Битрейт : 192 Кбит/сек
Каналы : 2 канала
Channel layout : L R
Частота : 48,0 КГц
Частота кадров : 31,250 кадров/сек (1536 SPF)
Метод сжатия : С потерями
Размер потока : 67,5 Мбайт (11%)
Выравнивание : Разделение по промежуткам
Продолжительность промежутка : 40 мс. (1,00 видеокадр)
Время предзагрузки промежутка : 500 мс.
Service kind : Complete Main
Релиз от:

Release was prepared by RG Files-x

[Profile] [PM]
Display posts:    
Reply to topic

Current time is: 24-Apr 10:06

All times are UTC + 3



You cannot post new topics in this forum
You cannot reply to topics in this forum
You cannot edit your posts in this forum
You cannot delete your posts in this forum
You cannot vote in polls in this forum
You cannot attach files in this forum
You cannot download files in this forum