Другой мужчина [1-4 серии из 4] (2023) WEB-DL 1080p от Files-x

Reply to topic
 
Author Message

bond74 ®

Gender: Male

Longevity: 5 years 5 months

Posts: 2365

Post 28-Feb-2024 16:19

[Quote]

Другой мужчина
Год выпуска: 2023
Жанр: Мелодрама
Выпущено: Россия, Кинокомпания ООО "ТА "Иртыш"
Режиссер: Денис Елеонский
В ролях: Ольга Боровская, Алексей Рыжков, Евгений Токарев, Анастасия Денисова, Екатерина Кожемякина, Татьяна Тимакова, Алиса Прохорова, Карина Шишлянникова, Валерий Борисов, Ирина Абросимова, Антон Никушин.
О фильме: Настя была успешной бизнесвумен, которая к сорока годам построила отличную карьеру, но смертельно устала от одиночества. Лучшая подруга считает, что ей нужно создать счастье собственными руками. Прислушавшись к этому совету, Настя решается принять предложение руки и сердца своего подчинённого. Виталий был молодым, красивым, здоровым, хватким, и к тому же ей очень симпатичен. Он обещал подарить семью и ребёнка в обмен на помощь в карьере, а любовь придёт сама собой. Настя согласилась, надеясь, что этот «коммерческий проект» принесет ей долгожданное женское счастье. Но вскоре её мечты оказываются под большим вопросом, после случайной встречи с маленькой девочкой и её отцом.
Качество: WEB-DL 1080p
Видео: MPEG-4 AVC, ~ 3500 Кбит/с, 1920x1080, 25 кадр/с, 25 кадр/с
Аудио: AC3, 2 ch, 192 Кбит/с
Продолжительность: 4 x ~ 00:51:04
Перевод: Не требуется
Субтитры: Нет

Скриншоты



MediaInfo

Общее
Уникальный идентификатор : 174897287218999456029084132174210713228 (0x8393FE050F7AC9C4B668DC476056C68C)
Полное имя : C:\ШОУ\Другой мужчина.2023.WEB-DL 1080p.Files-x\02. Другой мужчина.2023.WEB-DL 1080p.Files-x.mkv
Формат : Matroska
Версия формата : Version 4
Размер файла : 1,28 Гбайт
Продолжительность : 47 м. 15 с.
Общий поток : 3 874 Кбит/сек
Частота кадров : 25,000 кадров/сек
Дата кодирования : 2024-02-24 18:43:41 UTC
Программа кодирования : mkvmerge v7.8.0 ('River Man') 32bit built on Apr 3 2015 12:11:22
Библиотека кодирования : libebml v1.3.1 + libmatroska v1.4.2
Видео
Идентификатор : 1
Формат : AVC
Формат/Информация : Advanced Video Codec
Профиль формата : High@L4.1
Настройки формата : CABAC / 4 Ref Frames
Параметр CABAC формата : Да
Параметр RefFrames формата : 4 кадра
Параметр GOP формата : M=4, N=50
Идентификатор кодека : V_MPEG4/ISO/AVC
Продолжительность : 47 м. 15 с.
Битрейт : 3 680 Кбит/сек
Ширина : 1 920 пикселей
Высота : 1 080 пикселей
Соотношение сторон : 16:9
Описание активного формата : Full frame 16:9 image
Режим частоты кадров : Постоянный
Частота кадров : 25,000 кадров/сек
Стандарт вещания : PAL
Цветовое пространство : YUV
Субдискретизация насыщенности : 4:2:0
Битовая глубина : 8 бит
Тип развёртки : Прогрессивная
Бит/(Пиксели*Кадры) : 0.071
Размер потока : 1,21 Гбайт (95%)
Default : Да
Forced : Нет
Цветовой диапазон : Limited
Основные цвета : BT.709
Характеристики трансфера : BT.709
Коэффициенты матрицы : BT.709
Аудио
Идентификатор : 2
Формат : AC-3
Формат/Информация : Audio Coding 3
Коммерческое название : Dolby Digital
Идентификатор кодека : A_AC3
Продолжительность : 47 м. 15 с.
Вид битрейта : Постоянный
Битрейт : 192 Кбит/сек
Каналы : 2 канала
Channel layout : L R
Частота : 48,0 КГц
Частота кадров : 31,250 кадров/сек (1536 SPF)
Метод сжатия : С потерями
Размер потока : 64,9 Мбайт (5%)
Service kind : Complete Main
Default : Да
Forced : Нет
Релиз от:

Release was prepared by RG Files-x

[Profile] [PM]
Display posts:    
Reply to topic

Current time is: 24-Apr 09:10

All times are UTC + 3



You cannot post new topics in this forum
You cannot reply to topics in this forum
You cannot edit your posts in this forum
You cannot delete your posts in this forum
You cannot vote in polls in this forum
You cannot attach files in this forum
You cannot download files in this forum