Город тайн / Засуха / The Dry (2020) BDRip 1080p | iTunes

Reply to topic
 
Author Message

HardwareMining ®

Gender: Male

Longevity: 4 years 8 months

Posts: 626

Post 25-May-2024 10:10

[Quote]

Город тайн / Засуха / The Dry
«Что скрывает ложь?» Год выпуска: 2020
Жанр: триллер, драма, криминал, детектив
Выпущено: Австралия, США, Великобритания | Arenamedia, Cornerstone Films, Film Victoria, Made Up Stories, Media Super, Pick Up Truck Pictures, Screen Australia
Режиссер: Роберт Коннолли
В ролях: Эрик Бана, Женевьев О’Райли, Кейр О’Доннелл, Джеймс Фрешвилл, Мэтт Нейбл, Сэм Корлетт, Джереми Линдсэй Тейлор, Миранда Тапселл, Джон Полсон, Рени Лим, Мартин Дингл Уолл
О фильме:
Аарон Фальк, сделавший блестящую карьеру в федеральной полиции, спустя 20 лет приезжает в родной город на похороны своего когда-то лучшего друга Люка. Факты указывают на то, что тот убил жену и сына, а потом застрелился сам, но знавшие Люка не могут в это поверить. Неохотно принявшись за расследование, Фальк вскоре обнаруживает связь между этим делом и давним событием — смертью 17-летней Элли, их общей с Люком подруги.

Качество: BDRip 1080p
Видео: AVC, 1920x800 (2.40:1), 24 fps, 10.0 Mb/s (0.272 bit/pixel)
Аудио: русский, AC3, 5.1, 48 kHz, 384 kbps CBR
Продолжительность: 01:57:16
Перевод: Дублированный | iTunes
Субтитры: Русские | Forced

Скриншоты

MediaInfo

General
Unique ID : 177770917075817592916095644504711251545 (0x85BD6EE90FF848A9AA89FB0364D84659)
Complete name : E:\GF\The.Dry.2020.BDRip.1080p.Rip.by.HardwareMining.R.G.Generalfilm.mkv
Format : Matroska
Format version : Version 4
File size : 8.51 GiB
Duration : 1 h 57 min
Overall bit rate : 10.4 Mb/s
Frame rate : 24.000 FPS
Movie name : The.Dry.2020.BDRip.1080p.Rip.by.HardwareMining.R.G.Generalfilm
Encoded date : 2024-05-25 06:20:28 UTC
Writing application : mkvmerge v6.8.0 ('Theme for Great Cities') 32bit built on Mar 2 2014 21:27:07
Writing library : libebml v1.3.0 + libmatroska v1.4.1
Cover : Yes
Attachments : cover.png
Video
ID : 1
Format : AVC
Format/Info : Advanced Video Codec
Format profile : High@L4.1
Format settings : CABAC / 4 Ref Frames
Format settings, CABAC : Yes
Format settings, Reference frames : 4 frames
Codec ID : V_MPEG4/ISO/AVC
Duration : 1 h 57 min
Bit rate : 10.0 Mb/s
Width : 1 920 pixels
Height : 800 pixels
Display aspect ratio : 2.40:1
Frame rate mode : Constant
Frame rate : 24.000 FPS
Color space : YUV
Chroma subsampling : 4:2:0
Bit depth : 8 bits
Scan type : Progressive
Bits/(Pixel*Frame) : 0.272
Stream size : 8.02 GiB (94%)
Writing library : x264 core 130 r2273 b3065e6
Encoding settings : cabac=1 / ref=4 / deblock=1:-2:-1 / analyse=0x3:0x133 / me=umh / subme=10 / psy=1 / psy_rd=1.00:0.08 / mixed_ref=1 / me_range=32 / chroma_me=1 / trellis=2 / 8x8dct=1 / cqm=0 / deadzone=21,11 / fast_pskip=0 / chroma_qp_offset=-3 / threads=48 / lookahead_threads=6 / sliced_threads=0 / nr=0 / decimate=1 / interlaced=0 / bluray_compat=0 / constrained_intra=0 / bframes=11 / b_pyramid=2 / b_adapt=2 / b_bias=0 / direct=3 / weightb=1 / open_gop=0 / weightp=2 / keyint=250 / keyint_min=25 / scenecut=40 / intra_refresh=0 / rc=2pass / mbtree=0 / bitrate=10010 / ratetol=1.0 / qcomp=0.60 / qpmin=0 / qpmax=69 / qpstep=4 / cplxblur=20.0 / qblur=0.5 / ip_ratio=1.40 / pb_ratio=1.30 / aq=2:1.00
Language : English
Default : Yes
Forced : No
Color range : Limited
Color primaries : BT.709
Transfer characteristics : BT.709
Matrix coefficients : BT.709
Audio
ID : 2
Format : AC-3
Format/Info : Audio Coding 3
Commercial name : Dolby Digital
Codec ID : A_AC3
Duration : 1 h 57 min
Bit rate mode : Constant
Bit rate : 384 kb/s
Channel(s) : 6 channels
Channel layout : L R C LFE Ls Rs
Sampling rate : 48.0 kHz
Frame rate : 31.250 FPS (1536 SPF)
Compression mode : Lossy
Stream size : 322 MiB (4%)
Title : Dub | iTunes
Language : Russian
Service kind : Complete Main
Default : Yes
Forced : No
Dialog Normalization : -31 dB
cmixlev : -4.5 dB
surmixlev : -6 dB
dialnorm_Average : -31 dB
dialnorm_Minimum : -31 dB
dialnorm_Maximum : -31 dB
Text
ID : 3
Format : UTF-8
Codec ID : S_TEXT/UTF8
Codec ID/Info : UTF-8 Plain Text
Title : Forced
Language : Russian
Default : Yes
Forced : No
Menu
00:00:00.000 : en:Chapter 01
00:10:18.125 : en:Chapter 02
00:18:41.250 : en:Chapter 03
00:27:51.458 : en:Chapter 04
00:37:40.208 : en:Chapter 05
00:45:57.000 : en:Chapter 06
00:55:04.042 : en:Chapter 07
01:03:10.875 : en:Chapter 08
01:15:37.542 : en:Chapter 09
01:24:29.583 : en:Chapter 10
01:32:51.208 : en:Chapter 11
01:45:40.667 : en:Chapter 1
Релиз от:
[Profile] [PM]
Display posts:    
Reply to topic

Current time is: 24-Jun 06:09

All times are UTC + 3



You cannot post new topics in this forum
You cannot reply to topics in this forum
You cannot edit your posts in this forum
You cannot delete your posts in this forum
You cannot vote in polls in this forum
You cannot attach files in this forum
You cannot download files in this forum