Resident Evil: Collection (2002-2016) BDRip 1080p | Лицензия

Reply to topic
 
Author Message

HardwareMining ®

Gender: Male

Longevity: 4 years 8 months

Posts: 626

Post 25-May-2024 10:24

[Quote]

Resident Evil: Collection

Обитель зла / Resident Evil - 2002

Обитель зла / Resident Evil
«Секретный эксперимент. Смертельный вирус. Роковая ошибка»
Год выпуска: 2002
Жанр: ужасы, боевик, фантастика
Выпущено: США, Германия | Constantin Film, New Legacy, Davis-Films
Режиссер: Пол У. С. Андерсон
В ролях: Колин Сэлмон, Милла Йовович, Мишель Родригес, Эрик Мэбиас, Джеймс Пьюрфой, Мартин Крюз, Райан МакКласки, Оскар Пирс, Индра Ове, Анна Болт
О фильме:
В гигантской подземной лаборатории выходит из-под контроля опаснейший вирус и мгновенно превращает своих жертв в прожорливых зомби. Достаточно одного их укуса или царапины, чтобы человек стал обезумевшим пожирателем живой плоти.
Военные посылают в кишащий голодными монстрами секретный комплекс отряд спецназа, к которому присоединяются Элис и полицейский Мэтт. У них есть только три часа, чтобы уничтожить вирус.

Качество: BDRip 1080p
Видео: AVC, 1920x1040 (1.85:1), 23,976 fps, 14.0 Mb/s (0.293 bit/pixel)
Аудио: русский, AC3, 5.1, 48 kHz, 640 kbps CBR
Продолжительность: 01:40:30
Перевод: Дублированный | Лицензия
Субтитры: Отсутствуют

Скриншоты

MediaInfo

General
Unique ID : 209091263174896438879857676517798198546 (0x9D4D83324571278A9CA6C50545AA3D12)
Complete name : E:\GF\Resident Evil Collection\Resident.Evil.2002.BDRip.1080p.Rip.by.HardwareMining.R.G.Generalfilm.mkv
Format : Matroska
Format version : Version 4
File size : 10.3 GiB
Duration : 1 h 40 min
Overall bit rate : 14.7 Mb/s
Frame rate : 23.976 FPS
Movie name : Resident.Evil.2002.BDRip.1080p.Rip.by.HardwareMining.R.G.Generalfilm
Encoded date : 2024-04-13 12:02:30 UTC
Writing application : mkvmerge v6.8.0 ('Theme for Great Cities') 32bit built on Mar 2 2014 21:27:07
Writing library : libebml v1.3.0 + libmatroska v1.4.1
Cover : Yes
Attachments : cover.png
Video
ID : 1
Format : AVC
Format/Info : Advanced Video Codec
Format profile : High@L4.1
Format settings : CABAC / 4 Ref Frames
Format settings, CABAC : Yes
Format settings, Reference frames : 4 frames
Codec ID : V_MPEG4/ISO/AVC
Duration : 1 h 40 min
Bit rate : 14.0 Mb/s
Width : 1 920 pixels
Height : 1 040 pixels
Display aspect ratio : 1.85:1
Frame rate mode : Constant
Frame rate : 23.976 FPS
Color space : YUV
Chroma subsampling : 4:2:0
Bit depth : 8 bits
Scan type : Progressive
Bits/(Pixel*Frame) : 0.293
Stream size : 9.63 GiB (94%)
Writing library : x264 core 130 r2273 b3065e6
Encoding settings : cabac=1 / ref=4 / deblock=1:-2:-1 / analyse=0x3:0x133 / me=umh / subme=10 / psy=1 / psy_rd=1.00:0.08 / mixed_ref=1 / me_range=32 / chroma_me=1 / trellis=2 / 8x8dct=1 / cqm=0 / deadzone=21,11 / fast_pskip=0 / chroma_qp_offset=-3 / threads=48 / lookahead_threads=8 / sliced_threads=0 / nr=0 / decimate=1 / interlaced=0 / bluray_compat=0 / constrained_intra=0 / bframes=11 / b_pyramid=2 / b_adapt=2 / b_bias=0 / direct=3 / weightb=1 / open_gop=0 / weightp=2 / keyint=250 / keyint_min=25 / scenecut=40 / intra_refresh=0 / rc=2pass / mbtree=0 / bitrate=14030 / ratetol=1.0 / qcomp=0.60 / qpmin=0 / qpmax=69 / qpstep=4 / cplxblur=20.0 / qblur=0.5 / ip_ratio=1.40 / pb_ratio=1.30 / aq=2:1.00
Language : English
Default : Yes
Forced : No
Color range : Limited
Color primaries : BT.709
Transfer characteristics : BT.709
Matrix coefficients : BT.709
Audio
ID : 2
Format : AC-3
Format/Info : Audio Coding 3
Commercial name : Dolby Digital
Codec ID : A_AC3
Duration : 1 h 40 min
Bit rate mode : Constant
Bit rate : 640 kb/s
Channel(s) : 6 channels
Channel layout : L R C LFE Ls Rs
Sampling rate : 48.0 kHz
Frame rate : 31.250 FPS (1536 SPF)
Compression mode : Lossy
Stream size : 460 MiB (4%)
Title : Dub | Лицензия
Language : Russian
Service kind : Complete Main
Default : Yes
Forced : Yes
Dialog Normalization : -31 dB
cmixlev : -4.5 dB
surmixlev : -6 dB
dialnorm_Average : -31 dB
dialnorm_Minimum : -31 dB
dialnorm_Maximum : -31 dB
Menu
00:00:00.000 : en:(01)00:00:00:000
00:08:22.585 : en:(02)00:08:22:585
00:11:00.409 : en:(03)00:11:00:409
00:19:09.940 : en:(04)00:19:09:940
00:23:49.010 : en:(05)00:23:49:010
00:29:22.469 : en:(06)00:29:22:469
00:37:51.227 : en:(07)00:37:51:227
00:41:14.555 : en:(08)00:41:14:555
00:47:11.829 : en:(09)00:47:11:829
00:52:16.591 : en:(10)00:52:16:591
01:00:47.977 : en:(11)01:00:47:977
01:08:35.694 : en:(12)01:08:35:694
01:12:05.321 : en:(13)01:12:05:321
01:18:33.667 : en:(14)01:18:33:667
01:24:22.348 : en:(15)01:24:22:348
01:30:16.160 : en:(16)01:30:16:160

Обитель зла 2: Апокалипсис / Resident Evil: Apocalypse - 2004

Обитель зла 2: Апокалипсис / Resident Evil: Apocalypse
«Она прошла через катакомбы, кишащие зомби. Теперь на её пути целый город...»
Год выпуска: 2004
Жанр: ужасы, боевик, фантастика
Выпущено: Германия, Великобритания, США, Канада, Франция | Constantin Film, Davis Films / Impact Pictures
Режиссер: Александр Уитт
В ролях: Милла Йовович, Сиенна Гиллори, Одед Фер, Томас Кречманн, Софи Вавасо, Разаак Адоти, Джаред Харрис, Майк Еппс, Сандрин Холт, Мэттью Дж. Тейлор
О фильме:
Ракун-сити контролируется влиятельной корпорацией «Амбрелла». После бактериологической катастрофы жители медленно превращаются в зомби, а те немногочисленные граждане, чей разум ещё не до конца изъеден ужасным вирусом, доживают последние дни в атмосфере страха и с желанием скорейшей смерти.

Качество: BDRip 1080p
Видео: AVC, 1920x800 (2.40:1), 23,976 fps, 12.0 Mb/s (0.327 bit/pixel)
Аудио: русский, AC3, 5.1, 48 kHz, 640 kbps CBR
Продолжительность: 01:33:48
Перевод: Дублированный | Лицензия
Субтитры: Отсутствуют

Скриншоты

MediaInfo

General
Unique ID : 176428163678761200933050910424523652884 (0x84BAD40E7F6B84CB89E659AAAE8CBF14)
Complete name : E:\GF\Resident Evil Collection\Resident.Evil.Apocalypse.2004.BDRip.1080p.Rip.by.HardwareMining.R.G.Generalfilm.mkv
Format : Matroska
Format version : Version 4
File size : 8.29 GiB
Duration : 1 h 33 min
Overall bit rate : 12.7 Mb/s
Frame rate : 23.976 FPS
Movie name : Resident.Evil.Apocalypse.2004.BDRip.1080p.Rip.by.HardwareMining.R.G.Generalfilm
Encoded date : 2024-04-13 14:16:03 UTC
Writing application : mkvmerge v6.8.0 ('Theme for Great Cities') 32bit built on Mar 2 2014 21:27:07
Writing library : libebml v1.3.0 + libmatroska v1.4.1
Cover : Yes
Attachments : cover.png
Video
ID : 1
Format : AVC
Format/Info : Advanced Video Codec
Format profile : High@L4.1
Format settings : CABAC / 4 Ref Frames
Format settings, CABAC : Yes
Format settings, Reference frames : 4 frames
Codec ID : V_MPEG4/ISO/AVC
Duration : 1 h 33 min
Bit rate : 12.0 Mb/s
Width : 1 920 pixels
Height : 800 pixels
Display aspect ratio : 2.40:1
Frame rate mode : Constant
Frame rate : 23.976 FPS
Color space : YUV
Chroma subsampling : 4:2:0
Bit depth : 8 bits
Scan type : Progressive
Bits/(Pixel*Frame) : 0.327
Stream size : 7.71 GiB (93%)
Writing library : x264 core 130 r2273 b3065e6
Encoding settings : cabac=1 / ref=4 / deblock=1:-2:-1 / analyse=0x3:0x133 / me=umh / subme=10 / psy=1 / psy_rd=1.00:0.08 / mixed_ref=1 / me_range=32 / chroma_me=1 / trellis=2 / 8x8dct=1 / cqm=0 / deadzone=21,11 / fast_pskip=0 / chroma_qp_offset=-3 / threads=48 / lookahead_threads=6 / sliced_threads=0 / nr=0 / decimate=1 / interlaced=0 / bluray_compat=0 / constrained_intra=0 / bframes=11 / b_pyramid=2 / b_adapt=2 / b_bias=0 / direct=3 / weightb=1 / open_gop=0 / weightp=2 / keyint=250 / keyint_min=25 / scenecut=40 / intra_refresh=0 / rc=2pass / mbtree=0 / bitrate=12030 / ratetol=1.0 / qcomp=0.60 / qpmin=0 / qpmax=69 / qpstep=4 / cplxblur=20.0 / qblur=0.5 / ip_ratio=1.40 / pb_ratio=1.30 / aq=2:1.00
Language : English
Default : Yes
Forced : No
Color range : Limited
Color primaries : BT.709
Transfer characteristics : BT.709
Matrix coefficients : BT.709
Audio
ID : 2
Format : AC-3
Format/Info : Audio Coding 3
Commercial name : Dolby Digital
Codec ID : A_AC3
Duration : 1 h 33 min
Bit rate mode : Constant
Bit rate : 640 kb/s
Channel(s) : 6 channels
Channel layout : L R C LFE Ls Rs
Sampling rate : 48.0 kHz
Frame rate : 31.250 FPS (1536 SPF)
Compression mode : Lossy
Stream size : 429 MiB (5%)
Title : Dub | Лицензия
Language : Russian
Service kind : Complete Main
Default : Yes
Forced : Yes
Dialog Normalization : -31 dB
cmixlev : -4.5 dB
surmixlev : -6 dB
dialnorm_Average : -31 dB
dialnorm_Minimum : -31 dB
dialnorm_Maximum : -31 dB
Menu
00:00:00.000 : en:(01)00:00:00:000
00:05:56.356 : en:(02)00:05:56:356
00:14:52.224 : en:(03)00:14:52:224
00:19:38.051 : en:(04)00:19:38:051
00:24:04.401 : en:(05)00:24:04:401
00:30:52.934 : en:(06)00:30:52:934
00:36:15.798 : en:(07)00:36:15:798
00:42:48.315 : en:(08)00:42:48:315
00:49:02.564 : en:(09)00:49:02:564
00:56:26.508 : en:(10)00:56:26:508
01:00:40.970 : en:(11)01:00:40:970
01:07:08.858 : en:(12)01:07:08:858
01:13:13.097 : en:(13)01:13:13:097
01:18:07.057 : en:(14)01:18:07:057
01:22:26.858 : en:(15)01:22:26:858
01:24:27.854 : en:(16)01:24:27:854
01:33:46.537 : en:(17)01:33:46:537

Обитель зла 3: Вымирание / Resident Evil: Extinction - 2007

Обитель зла 3: Вымирание / Resident Evil: Extinction
«На этот раз без компромиссов» Год выпуска: 2007
Жанр: ужасы, боевик, фантастика, триллер
Выпущено: Германия, США, Франция, Австралия, Великобритания | Constantin Film, Davis Films / Impact Pictures, Screen Gems
Режиссер: Рассел Малкэй
В ролях: Милла Йовович, Одед Фер, Эли Лартер, Айэйн Глен, Ашанти, Кристофер Иган, Спенсер Лок, Мэттью Мэрсден, Линден Эшби, Джейсон О'Мара
О фильме:
Элис, не раз уже спасавшая мир от смертельных вирусов и неминуемой гибели, вновь взялась за оружие. На этот раз ей предстоит сразиться с корпорацией «Амбрелла», работающей над реализацией зверского антигуманного проекта. Коварные политики и прагматичные ученые стремятся уничтожить людей и заменить их на более «совершенные» создания, заселив Землю неуязвимыми бессмертными клонами…

Качество: BDRip 1080p
Видео: AVC, 1920x800 (2.40:1), 23,976 fps, 13.0 Mb/s (0.354 bit/pixel)
Аудио: русский, AC3, 5.1, 48 kHz, 640 kbps CBR
Продолжительность: 01:34:05
Перевод: Дублированный | Лицензия
Субтитры: Отсутствуют

Скриншоты

MediaInfo

General
Unique ID : 214122457777314349045712553180567901876 (0xA1167C3DECFEB01BADEB29507A0716B4)
Complete name : E:\GF\Resident Evil Collection\Resident.Evil.Extinction.2007.BDRip.1080p.Rip.by.HardwareMining.R.G.Generalfilm.mkv
Format : Matroska
Format version : Version 4
File size : 8.98 GiB
Duration : 1 h 34 min
Overall bit rate : 13.7 Mb/s
Frame rate : 23.976 FPS
Movie name : Resident.Evil.Extinction.2007.BDRip.1080p.Rip.by.HardwareMining.R.G.Generalfilm
Encoded date : 2024-04-14 15:50:50 UTC
Writing application : mkvmerge v6.8.0 ('Theme for Great Cities') 32bit built on Mar 2 2014 21:27:07
Writing library : libebml v1.3.0 + libmatroska v1.4.1
Cover : Yes
Attachments : cover.png
Video
ID : 1
Format : AVC
Format/Info : Advanced Video Codec
Format profile : High@L4.1
Format settings : CABAC / 4 Ref Frames
Format settings, CABAC : Yes
Format settings, Reference frames : 4 frames
Codec ID : V_MPEG4/ISO/AVC
Duration : 1 h 34 min
Bit rate : 13.0 Mb/s
Width : 1 920 pixels
Height : 800 pixels
Display aspect ratio : 2.40:1
Frame rate mode : Constant
Frame rate : 23.976 FPS
Color space : YUV
Chroma subsampling : 4:2:0
Bit depth : 8 bits
Scan type : Progressive
Bits/(Pixel*Frame) : 0.354
Stream size : 8.38 GiB (93%)
Writing library : x264 core 130 r2273 b3065e6
Encoding settings : cabac=1 / ref=4 / deblock=1:-2:-1 / analyse=0x3:0x133 / me=umh / subme=10 / psy=1 / psy_rd=1.00:0.08 / mixed_ref=1 / me_range=32 / chroma_me=1 / trellis=2 / 8x8dct=1 / cqm=0 / deadzone=21,11 / fast_pskip=0 / chroma_qp_offset=-3 / threads=48 / lookahead_threads=6 / sliced_threads=0 / nr=0 / decimate=1 / interlaced=0 / bluray_compat=0 / constrained_intra=0 / bframes=11 / b_pyramid=2 / b_adapt=2 / b_bias=0 / direct=3 / weightb=1 / open_gop=0 / weightp=2 / keyint=250 / keyint_min=25 / scenecut=40 / intra_refresh=0 / rc=2pass / mbtree=0 / bitrate=13030 / ratetol=1.0 / qcomp=0.60 / qpmin=0 / qpmax=69 / qpstep=4 / cplxblur=20.0 / qblur=0.5 / ip_ratio=1.40 / pb_ratio=1.30 / aq=2:1.00
Language : English
Default : Yes
Forced : No
Color range : Limited
Color primaries : BT.709
Transfer characteristics : BT.709
Matrix coefficients : BT.709
Audio
ID : 2
Format : AC-3
Format/Info : Audio Coding 3
Commercial name : Dolby Digital
Codec ID : A_AC3
Duration : 1 h 34 min
Bit rate mode : Constant
Bit rate : 640 kb/s
Channel(s) : 6 channels
Channel layout : L R C LFE Ls Rs
Sampling rate : 48.0 kHz
Frame rate : 31.250 FPS (1536 SPF)
Compression mode : Lossy
Stream size : 431 MiB (5%)
Title : Dub | Лицензия
Language : Russian
Service kind : Complete Main
Default : Yes
Forced : Yes
Dialog Normalization : -31 dB
cmixlev : -4.5 dB
surmixlev : -6 dB
dialnorm_Average : -31 dB
dialnorm_Minimum : -31 dB
dialnorm_Maximum : -31 dB
Menu
00:00:00.000 : en:(01)00:00:00:000
00:07:32.368 : en:(02)00:07:32:368
00:13:39.318 : en:(03)00:13:39:318
00:18:25.437 : en:(04)00:18:25:437
00:25:13.386 : en:(05)00:25:13:386
00:30:07.806 : en:(06)00:30:07:806
00:32:17.727 : en:(07)00:32:17:727
00:38:53.497 : en:(08)00:38:53:497
00:44:21.784 : en:(09)00:44:21:784
00:50:56.053 : en:(10)00:50:56:053
00:55:23.653 : en:(11)00:55:23:653
01:01:46.160 : en:(12)01:01:46:160
01:08:50.376 : en:(13)01:08:50:376
01:14:42.769 : en:(14)01:14:42:769
01:19:13.248 : en:(15)01:19:13:248
01:24:15.550 : en:(16)01:24:15:550
01:34:04.472 : en:(17)01:34:04:47

Обитель зла 4: Жизнь после смерти / Resident Evil: Afterlife - 2010

Обитель зла 4: Жизнь после смерти / Resident Evil: Afterlife
«Испытайте новое измерение зла» Год выпуска: 2010
Жанр: ужасы, боевик, фантастика, приключения
Выпущено: Германия, Канада, США | Constantin Film, Davis Films / Impact Pictures, Screen Gems
Режиссер: Пол У. С. Андерсон
В ролях: Милла Йовович, Эли Лартер, Вентворт Миллер, Ким Коутс, Шоун Робертс, Серджо Перис-Менчета, Спенсер Лок, Борис Коджо, Сиенна Гиллори, Кейси Барнфилд
О фильме:
Элис продолжает свой путь в мире, поражённом вирусной инфекцией, превращающей людей в нежить. Героиня ищет оставшихся в живых, чтобы вывести их в безопасное место. Её смертельная битва с корпорацией Амбрелла выходит на новый уровень...

Качество: BDRip 1080p
Видео: AVC, 1920x800 (2.40:1), 23,976 fps, 9030 kb/s (0.245 bit/pixel)
Аудио: русский, AC3, 5.1, 48 kHz, 640 kbps CBR
Продолжительность: 01:36:52
Перевод: Дублированный | Лицензия
Субтитры: Русские | Forced

Скриншоты

MediaInfo

General
Unique ID : 181700119745934922620551640339343509503 (0x88B22B8F1090EDB59C0A0178C6C887FF)
Complete name : E:\GF\Resident Evil Collection\Resident.Evil.Afterlife.2010.BDRip.1080p.Rip.by.HardwareMining.R.G.Generalfilm.mkv
Format : Matroska
Format version : Version 4
File size : 6.55 GiB
Duration : 1 h 36 min
Overall bit rate : 9 674 kb/s
Frame rate : 23.976 FPS
Movie name : Resident.Evil.Afterlife.2010.BDRip.1080p.Rip.by.HardwareMining.R.G.Generalfilm
Encoded date : 2024-04-15 15:21:04 UTC
Writing application : mkvmerge v6.8.0 ('Theme for Great Cities') 32bit built on Mar 2 2014 21:27:07
Writing library : libebml v1.3.0 + libmatroska v1.4.1
Cover : Yes
Attachments : cover.png
Video
ID : 1
Format : AVC
Format/Info : Advanced Video Codec
Format profile : High@L4.1
Format settings : CABAC / 4 Ref Frames
Format settings, CABAC : Yes
Format settings, Reference frames : 4 frames
Codec ID : V_MPEG4/ISO/AVC
Duration : 1 h 36 min
Bit rate : 9 030 kb/s
Width : 1 920 pixels
Height : 800 pixels
Display aspect ratio : 2.40:1
Frame rate mode : Constant
Frame rate : 23.976 FPS
Color space : YUV
Chroma subsampling : 4:2:0
Bit depth : 8 bits
Scan type : Progressive
Bits/(Pixel*Frame) : 0.245
Stream size : 5.98 GiB (91%)
Writing library : x264 core 130 r2273 b3065e6
Encoding settings : cabac=1 / ref=4 / deblock=1:-2:-1 / analyse=0x3:0x133 / me=umh / subme=10 / psy=1 / psy_rd=1.00:0.08 / mixed_ref=1 / me_range=32 / chroma_me=1 / trellis=2 / 8x8dct=1 / cqm=0 / deadzone=21,11 / fast_pskip=0 / chroma_qp_offset=-3 / threads=48 / lookahead_threads=6 / sliced_threads=0 / nr=0 / decimate=1 / interlaced=0 / bluray_compat=0 / constrained_intra=0 / bframes=11 / b_pyramid=2 / b_adapt=2 / b_bias=0 / direct=3 / weightb=1 / open_gop=0 / weightp=2 / keyint=250 / keyint_min=25 / scenecut=40 / intra_refresh=0 / rc=2pass / mbtree=0 / bitrate=9030 / ratetol=1.0 / qcomp=0.60 / qpmin=0 / qpmax=69 / qpstep=4 / cplxblur=20.0 / qblur=0.5 / ip_ratio=1.40 / pb_ratio=1.30 / aq=2:1.00
Language : English
Default : Yes
Forced : No
Color range : Limited
Color primaries : BT.709
Transfer characteristics : BT.709
Matrix coefficients : BT.709
Audio
ID : 2
Format : AC-3
Format/Info : Audio Coding 3
Commercial name : Dolby Digital
Codec ID : A_AC3
Duration : 1 h 36 min
Bit rate mode : Constant
Bit rate : 640 kb/s
Channel(s) : 6 channels
Channel layout : L R C LFE Ls Rs
Sampling rate : 48.0 kHz
Frame rate : 31.250 FPS (1536 SPF)
Compression mode : Lossy
Stream size : 443 MiB (7%)
Title : Dub | Лицензия
Language : Russian
Service kind : Complete Main
Default : Yes
Forced : No
Dialog Normalization : -31 dB
cmixlev : -4.5 dB
surmixlev : -6 dB
dialnorm_Average : -31 dB
dialnorm_Minimum : -31 dB
dialnorm_Maximum : -31 dB
Text
ID : 3
Format : UTF-8
Codec ID : S_TEXT/UTF8
Codec ID/Info : UTF-8 Plain Text
Title : Forced
Language : Russian
Default : Yes
Forced : Yes
Menu
00:00:00.000 : en:(01)00:00:00:000
00:07:51.304 : en:(02)00:07:51:304
00:14:04.552 : en:(03)00:14:04:552
00:19:21.368 : en:(04)00:19:21:368
00:25:23.939 : en:(05)00:25:23:939
00:30:07.222 : en:(06)00:30:07:222
00:35:08.189 : en:(07)00:35:08:189
00:41:51.091 : en:(08)00:41:51:091
00:47:07.241 : en:(09)00:47:07:241
00:53:41.468 : en:(10)00:53:41:468
01:00:53.941 : en:(11)01:00:53:941
01:07:58.532 : en:(12)01:07:58:532
01:14:07.985 : en:(13)01:14:07:985
01:17:54.711 : en:(14)01:17:54:711
01:23:39.014 : en:(15)01:23:39:014
01:27:24.489 : en:(16)01:27:24:489

Обитель зла: Возмездие / Resident Evil: Retribution - 2012

Обитель зла: Возмездие / Resident Evil: Retribution
«Evil goes global» Год выпуска: 2012
Жанр: ужасы, боевик, фантастика, триллер
Выпущено: Германия, Канада, США | Constantin Film, Davis Films / Impact Pictures, Capcom Company
Режиссер: Пол У. С. Андерсон
В ролях: Милла Йовович, Мишель Родригес, Сиенна Гиллори, Кевин Дюранд, Йохан Урб, Колин Сэмон, Ли Бинбин, Шон Робертс, Одед Фер, Спенсер Лок
О фильме:
Смертельный T-вирус, созданный в лабораториях корпорации «Амбрелла», продолжает захватывать Землю, превращая мировое население в легионы пожирающих плоть зомби. Последняя надежда человечества Элис внедряется в самое сердце самой тайной исследовательской базы корпорации и узнает еще больше о собственном таинственном прошлом. Не имея путей к отступлению, Элис продолжает искать виновных в глобальной катастрофе. Вызов, который она принимала в Токио, Нью-Йорке, Вашингтоне и даже в Москве, приводит ее в итоге к взрывающему сознание откровению, которое заставит ее переосмыслить все, что она полагала правдой. С помощью новых союзников и старых друзей, Элис будет сражаться за выживание и убегать из враждебного мира. Отсчет времени начат...

Качество: BDRip 1080p
Видео: AVC, 1920x800 (2.40:1), 23,976 fps, 10.0 Mb/s (0.272 bit/pixel)
Аудио: русский, AC3, 5.1, 48 kHz, 640 kbps CBR
Продолжительность: 01:35:37
Перевод: Дублированный | Лицензия
Субтитры: Отсутствуют

Скриншоты

MediaInfo

General
Unique ID : 195292362871107234500601901300176767040 (0x92EBF0E2841AA4059BEA742DB371C840)
Complete name : E:\GF\Resident Evil Collection\Resident.Evil.Retribution.2012.BDRip.1080p.Rip.by.HardwareMining.R.G.Generalfilm.mkv
Format : Matroska
Format version : Version 4
File size : 7.13 GiB
Duration : 1 h 35 min
Overall bit rate : 10.7 Mb/s
Frame rate : 23.976 FPS
Movie name : Resident.Evil.Retribution.2012.BDRip.1080p.Rip.by.HardwareMining.R.G.Generalfilm
Encoded date : 2024-04-18 15:07:36 UTC
Writing application : mkvmerge v6.8.0 ('Theme for Great Cities') 32bit built on Mar 2 2014 21:27:07
Writing library : libebml v1.3.0 + libmatroska v1.4.1
Cover : Yes
Attachments : cover.png
Video
ID : 2
Format : AVC
Format/Info : Advanced Video Codec
Format profile : High@L4.1
Format settings : CABAC / 4 Ref Frames
Format settings, CABAC : Yes
Format settings, Reference frames : 4 frames
Codec ID : V_MPEG4/ISO/AVC
Duration : 1 h 35 min
Bit rate : 10.0 Mb/s
Width : 1 920 pixels
Height : 800 pixels
Display aspect ratio : 2.40:1
Frame rate mode : Constant
Frame rate : 23.976 FPS
Color space : YUV
Chroma subsampling : 4:2:0
Bit depth : 8 bits
Scan type : Progressive
Bits/(Pixel*Frame) : 0.272
Stream size : 6.56 GiB (92%)
Writing library : x264 core 130 r2273 b3065e6
Encoding settings : cabac=1 / ref=4 / deblock=1:-2:-1 / analyse=0x3:0x133 / me=umh / subme=10 / psy=1 / psy_rd=1.00:0.08 / mixed_ref=1 / me_range=32 / chroma_me=1 / trellis=2 / 8x8dct=1 / cqm=0 / deadzone=21,11 / fast_pskip=0 / chroma_qp_offset=-3 / threads=48 / lookahead_threads=6 / sliced_threads=0 / nr=0 / decimate=1 / interlaced=0 / bluray_compat=0 / constrained_intra=0 / bframes=11 / b_pyramid=2 / b_adapt=2 / b_bias=0 / direct=3 / weightb=1 / open_gop=0 / weightp=2 / keyint=250 / keyint_min=25 / scenecut=40 / intra_refresh=0 / rc=2pass / mbtree=0 / bitrate=10030 / ratetol=1.0 / qcomp=0.60 / qpmin=0 / qpmax=69 / qpstep=4 / cplxblur=20.0 / qblur=0.5 / ip_ratio=1.40 / pb_ratio=1.30 / aq=2:1.00
Language : English
Default : Yes
Forced : No
Color range : Limited
Color primaries : BT.709
Transfer characteristics : BT.709
Matrix coefficients : BT.709
Audio
ID : 1
Format : AC-3
Format/Info : Audio Coding 3
Commercial name : Dolby Digital
Codec ID : A_AC3
Duration : 1 h 35 min
Bit rate mode : Constant
Bit rate : 640 kb/s
Channel(s) : 6 channels
Channel layout : L R C LFE Ls Rs
Sampling rate : 48.0 kHz
Frame rate : 31.250 FPS (1536 SPF)
Compression mode : Lossy
Stream size : 438 MiB (6%)
Title : Dub | Лицензия
Language : Russian
Service kind : Complete Main
Default : Yes
Forced : No
Dialog Normalization : -31 dB
compr : -0.28 dB
cmixlev : -3.0 dB
surmixlev : -3 dB
dialnorm_Average : -31 dB
dialnorm_Minimum : -31 dB
dialnorm_Maximum : -31 dB
Menu
00:00:00.000 : en:(01)00:00:00:000
00:07:43.045 : en:(02)00:07:43:045
00:14:32.538 : en:(03)00:14:32:538
00:21:38.839 : en:(04)00:21:38:839
00:25:39.329 : en:(05)00:25:39:329
00:29:31.186 : en:(06)00:29:31:186
00:34:16.846 : en:(07)00:34:16:846
00:39:14.769 : en:(08)00:39:14:769
00:45:29.435 : en:(09)00:45:29:435
00:50:27.441 : en:(10)00:50:27:441
00:54:42.070 : en:(11)00:54:42:070
01:00:14.861 : en:(12)01:00:14:861
01:05:38.476 : en:(13)01:05:38:476
01:11:22.903 : en:(14)01:11:22:903
01:16:15.571 : en:(15)01:16:15:571
01:21:29.384 : en:(16)01:21:29:384

Обитель зла: Последняя глава / Resident Evil: The Final Chapter - 2016

Обитель зла: Последняя глава / Resident Evil: The Final Chapter
«Конец пути» Год выпуска: 2016
Жанр: ужасы, боевик, фантастика, триллер
Выпущено: Германия, Канада | Screen Gems, Constantin Film, Davis-Films
Режиссер: Пол У. С. Андерсон
В ролях: Милла Йовович, Иэн Глен, Эли Лартер, Шон Робертс, Оуэн Мэкен, Фрайзер Джеймс, Руби Роуз, Уильям Леви, Рола, Эвер Андерсон
О фильме:
Действия фильма разворачиваются с того момента, на котором закончилась предыдущая часть. После того как Вескер предал Элис в Вашингтоне, конец истории человечества стал еще ближе. Элис - последняя надежда на спасение мира. Она должна вернуться к точке отсчета, туда, где все и началось - город Раккун-Сити, где корпорация «Амбрелла» готовится к финальной атаке по тем, кому удалось выжить.
В гонке со временем Элис вооружится до зубов и объединится с друзьями и теми, кого не ожидала увидеть в роли своих союзников. Вместе они будут биться против армии мертвецов и новых чудовищных мутантов. Находясь под угрозой потери своих способностей и готовясь к неминуемой атаке корпорации, Элис столкнется с еще более трудными проблемами, а человечество тем временем будет находиться на грани гибели.

Качество: BDRip 1080p
Видео: AVC, 1920x800 (2.40:1), 23,976 fps, 6030 kb/s (0.164 bit/pixel)
Аудио: русский, AC3, 5.1, 48 kHz, 640 kbps CBR
Продолжительность: 01:46:40
Перевод: Дублированный | Лицензия
Субтитры: Русские | Forced

Скриншоты

MediaInfo

General
Unique ID : 229888116518121981937276780816549013008 (0xACF2D73B22F9F0CFA0222B30FC2FE610)
Complete name : E:\GF\Resident Evil Collection\Resident.Evil.The.Final.Chapter.2016.BDRip.1080p.Rip.by.HardwareMining.R.G.Generalfilm.mkv
Format : Matroska
Format version : Version 4
File size : 4.97 GiB
Duration : 1 h 46 min
Overall bit rate : 6 672 kb/s
Frame rate : 23.976 FPS
Movie name : Resident.Evil.The.Final.Chapter.2016.BDRip.1080p.Rip.by.HardwareMining.R.G.Generalfilm
Encoded date : 2024-05-03 14:00:04 UTC
Writing application : mkvmerge v6.8.0 ('Theme for Great Cities') 32bit built on Mar 2 2014 21:27:07
Writing library : libebml v1.3.0 + libmatroska v1.4.1
Cover : Yes
Attachments : cover.png
Video
ID : 1
Format : AVC
Format/Info : Advanced Video Codec
Format profile : High@L4.1
Format settings : CABAC / 4 Ref Frames
Format settings, CABAC : Yes
Format settings, Reference frames : 4 frames
Codec ID : V_MPEG4/ISO/AVC
Duration : 1 h 46 min
Bit rate : 6 030 kb/s
Width : 1 920 pixels
Height : 800 pixels
Display aspect ratio : 2.40:1
Frame rate mode : Constant
Frame rate : 23.976 FPS
Color space : YUV
Chroma subsampling : 4:2:0
Bit depth : 8 bits
Scan type : Progressive
Bits/(Pixel*Frame) : 0.164
Stream size : 4.40 GiB (88%)
Writing library : x264 core 130 r2273 b3065e6
Encoding settings : cabac=1 / ref=4 / deblock=1:-2:-1 / analyse=0x3:0x133 / me=umh / subme=10 / psy=1 / psy_rd=1.00:0.08 / mixed_ref=1 / me_range=32 / chroma_me=1 / trellis=2 / 8x8dct=1 / cqm=0 / deadzone=21,11 / fast_pskip=0 / chroma_qp_offset=-3 / threads=48 / lookahead_threads=6 / sliced_threads=0 / nr=0 / decimate=1 / interlaced=0 / bluray_compat=0 / constrained_intra=0 / bframes=11 / b_pyramid=2 / b_adapt=2 / b_bias=0 / direct=3 / weightb=1 / open_gop=0 / weightp=2 / keyint=250 / keyint_min=25 / scenecut=40 / intra_refresh=0 / rc=2pass / mbtree=0 / bitrate=6030 / ratetol=1.0 / qcomp=0.60 / qpmin=0 / qpmax=69 / qpstep=4 / cplxblur=20.0 / qblur=0.5 / ip_ratio=1.40 / pb_ratio=1.30 / aq=2:1.00
Language : English
Default : Yes
Forced : No
Color range : Limited
Color primaries : BT.709
Transfer characteristics : BT.709
Matrix coefficients : BT.709
Audio
ID : 2
Format : AC-3
Format/Info : Audio Coding 3
Commercial name : Dolby Digital
Codec ID : A_AC3
Duration : 1 h 46 min
Bit rate mode : Constant
Bit rate : 640 kb/s
Channel(s) : 6 channels
Channel layout : L R C LFE Ls Rs
Sampling rate : 48.0 kHz
Frame rate : 31.250 FPS (1536 SPF)
Compression mode : Lossy
Stream size : 488 MiB (10%)
Title : Dub | Лицензия
Language : Russian
Service kind : Complete Main
Default : Yes
Forced : No
Dialog Normalization : -31 dB
compr : -0.28 dB
cmixlev : -3.0 dB
surmixlev : -3 dB
mixlevel : 285 dB
roomtyp : 3
ltrtcmixlev : -3.0 dB
ltrtsurmixlev : -3.0 dB
lorocmixlev : -3.0 dB
lorosurmixlev : -4.5 dB
dialnorm_Average : -31 dB
dialnorm_Minimum : -31 dB
dialnorm_Maximum : -31 dB
Text
ID : 3
Format : UTF-8
Codec ID : S_TEXT/UTF8
Codec ID/Info : UTF-8 Plain Text
Title : Forced
Language : Russian
Default : Yes
Forced : Yes
Menu
00:00:00.000 : en:Chapter 01
00:05:39.339 : en:Chapter 02
00:11:18.177 : en:Chapter 03
00:17:00.102 : en:Chapter 04
00:22:36.146 : en:Chapter 05
00:27:21.640 : en:Chapter 06
00:33:38.474 : en:Chapter 07
00:40:47.820 : en:Chapter 08
00:46:36.126 : en:Chapter 09
00:53:18.778 : en:Chapter 10
01:03:18.669 : en:Chapter 11
01:10:47.826 : en:Chapter 12
01:15:37.574 : en:Chapter 13
01:22:57.806 : en:Chapter 14
01:28:32.765 : en:Chapter 15
01:35:07.159 : en:Chapter 16
Релиз от:
[Profile] [PM]
Display posts:    
Reply to topic

Current time is: 24-Jun 07:36

All times are UTC + 3



You cannot post new topics in this forum
You cannot reply to topics in this forum
You cannot edit your posts in this forum
You cannot delete your posts in this forum
You cannot vote in polls in this forum
You cannot attach files in this forum
You cannot download files in this forum