Иди ко мне, детка / She Came to Me (2023) BDRip 1080p | Мосфильм-Мастер

Reply to topic
 
Author Message

HardwareMining ®

Gender: Male

Longevity: 4 years 9 months

Posts: 650

Post 23-Jun-2024 16:07

[Quote]

Иди ко мне, детка / She Came to Me
Год выпуска: 2023
Жанр: драма, мелодрама, комедия
Выпущено: США | Killer Films, Round Films, Somewhere Pictures
Режиссер: Ребекка Миллер
В ролях: Питер Динклэйдж, Энн Хэтэуэй, Мариса Томей, Ивэн Эллисон, Харлоу Джейн, Йоанна Кулиг, Брайан Д’Арси Джеймс, Джуди Голд, Энтони Рот Костанзо, Сэмюэл Х. Ливайн
О фильме:
Одна авантюрная ночь в Нью-Йорке, и жизнь композитора, пребывающего в глубоком творческом кризисе, переворачивается с ног на голову.

Качество: BDRip 1080p
Видео: AVC, 1920x1080 (16:9), 23,976 fps, 12.0 Mb/s (0.241 bit/pixel)
Аудио: русский, AC3, 5.1, 48 kHz, 640 kbps CBR
Продолжительность: 01:41:57
Перевод: Дублированный | Мосфильм-Мастер
Субтитры: Русские | Forced

Скриншоты

MediaInfo

General
Unique ID : 248962831919095714497695828673358372182 (0xBB4C7F4F43EE104CB40E56721E729D56)
Complete name : E:\GF\She.Came.to.Me.2023.BDRip.1080p.Rip.by.HardwareMining.R.G.Generalfilm.mkv
Format : Matroska
Format version : Version 4
File size : 8.99 GiB
Duration : 1 h 41 min
Overall bit rate : 12.6 Mb/s
Frame rate : 23.976 FPS
Movie name : She.Came.to.Me.2023.BDRip.1080p.Rip.by.HardwareMining.R.G.Generalfilm
Encoded date : 2024-06-22 14:01:07 UTC
Writing application : mkvmerge v6.8.0 ('Theme for Great Cities') 32bit built on Mar 2 2014 21:27:07
Writing library : libebml v1.3.0 + libmatroska v1.4.1
Cover : Yes
Attachments : cover.png
Video
ID : 1
Format : AVC
Format/Info : Advanced Video Codec
Format profile : High@L4.1
Format settings : CABAC / 4 Ref Frames
Format settings, CABAC : Yes
Format settings, Reference frames : 4 frames
Codec ID : V_MPEG4/ISO/AVC
Duration : 1 h 41 min
Bit rate : 12.0 Mb/s
Width : 1 920 pixels
Height : 1 080 pixels
Display aspect ratio : 16:9
Frame rate mode : Constant
Frame rate : 23.976 FPS
Color space : YUV
Chroma subsampling : 4:2:0
Bit depth : 8 bits
Scan type : Progressive
Bits/(Pixel*Frame) : 0.241
Stream size : 8.36 GiB (93%)
Writing library : x264 core 130 r2273 b3065e6
Encoding settings : cabac=1 / ref=4 / deblock=1:-2:-1 / analyse=0x3:0x133 / me=umh / subme=10 / psy=1 / psy_rd=1.00:0.08 / mixed_ref=1 / me_range=32 / chroma_me=1 / trellis=2 / 8x8dct=1 / cqm=0 / deadzone=21,11 / fast_pskip=0 / chroma_qp_offset=-3 / threads=48 / lookahead_threads=8 / sliced_threads=0 / nr=0 / decimate=1 / interlaced=0 / bluray_compat=0 / constrained_intra=0 / bframes=11 / b_pyramid=2 / b_adapt=2 / b_bias=0 / direct=3 / weightb=1 / open_gop=0 / weightp=2 / keyint=250 / keyint_min=25 / scenecut=40 / intra_refresh=0 / rc=2pass / mbtree=0 / bitrate=12000 / ratetol=1.0 / qcomp=0.60 / qpmin=0 / qpmax=69 / qpstep=4 / cplxblur=20.0 / qblur=0.5 / ip_ratio=1.40 / pb_ratio=1.30 / aq=2:1.00
Language : English
Default : Yes
Forced : No
Color range : Limited
Color primaries : BT.709
Transfer characteristics : BT.709
Matrix coefficients : BT.709
Audio
ID : 2
Format : AC-3
Format/Info : Audio Coding 3
Commercial name : Dolby Digital
Codec ID : A_AC3
Duration : 1 h 41 min
Bit rate mode : Constant
Bit rate : 640 kb/s
Channel(s) : 6 channels
Channel layout : L R C LFE Ls Rs
Sampling rate : 48.0 kHz
Frame rate : 31.250 FPS (1536 SPF)
Compression mode : Lossy
Stream size : 467 MiB (5%)
Title : Dub | Мосфильм-Мастер, KION
Language : Russian
Service kind : Complete Main
Default : Yes
Forced : No
Dialog Normalization : -27 dB
cmixlev : -3.0 dB
surmixlev : -3 dB
dmixmod : Lo/Ro
ltrtcmixlev : -3.0 dB
ltrtsurmixlev : -3.0 dB
lorocmixlev : -3.0 dB
lorosurmixlev : -3.0 dB
dialnorm_Average : -27 dB
dialnorm_Minimum : -27 dB
dialnorm_Maximum : -27 dB
Text
ID : 3
Format : UTF-8
Codec ID : S_TEXT/UTF8
Codec ID/Info : UTF-8 Plain Text
Title : forced
Language : Russian
Default : Yes
Forced : No
Menu
00:00:00.000 : en:Chapter 1
00:13:57.962 : en:Chapter 2
00:29:03.742 : en:Chapter 3
00:42:15.199 : en:Chapter 4
00:55:35.457 : en:Chapter 5
01:09:07.393 : en:Chapter 6
01:23:02.852 : en:Chapter 7
01:35:31.726 : en:Chapter 8
Релиз от:
[Profile] [PM]
Display posts:    
Reply to topic

Current time is: 19-Jul 12:10

All times are UTC + 3



You cannot post new topics in this forum
You cannot reply to topics in this forum
You cannot edit your posts in this forum
You cannot delete your posts in this forum
You cannot vote in polls in this forum
You cannot attach files in this forum
You cannot download files in this forum