Крепкие орешки [2 сезон: 1-32 серии из 32] (2022) SATRip от Files-x

Reply to topic
 
Author Message

Nicodem ®

Gender: Male

Longevity: 5 years 6 months

Posts: 1431

Post 18-Sep-2022 17:19

[Quote]

Крепкие орешки
Год выпуска: 2022
Жанр: Детектив
Выпущено: Россия, "Триикс Медиа"
Режиссер: Дмитрий Аверин (II), Андрей Коршунов
В ролях: Филипп Азаров, Борис Бедросов, Андрей Бабенко, Вячеслав Аркунов, Олег Абалян, Евгений Пилипенко, Кристина Иёшкина, Елена Агеева (II), Денис Козинец, Арсений Кожемякин, Владимир Лабецкий, Анатолий Краснопивцев, Варвара Резвова, Екатерина Зорина, Светлана Перфильева, Наталья Свешникова, Олег Метелев, Елизавета Ковалёва, Виктория Плоп, Иван Сямянен, Антон Чернов, Евгений Катаев, Виталий Гумеров, Ольга Любимова (II), Владимир Брест, Елена Бобровская, Александра Морозова (II), Андрей Москвичёв, Владимир Ляхов (II), Валентин Бугаев, Яна Горская, Даниил Буров, Иван Киренков, Екатерина Корякина, Светлана Терентьева, Денис Волков, Мирослав Харин, Александр Малахов, Ева Жук
О фильме: Продолжение детективного сериала про оперативников Лаврова и Романова. В первом сезоне зрители расстались с любимыми героями в тот момент, когда оперативники оказались в закрытой комнате и с гранатой, готовой разорваться в любую секунду...В премьерных сериях будет сразу несколько щекотливых ситуаций в семье Романова, из которых он с достоинством выйдет. Помощница начальника Оля, влюбленная в Романова, осмелеет и станет более настойчивой. Изменения ждут и другого главного героя – оперативника Лаврова.

Качество: SATRip
Видео: XviD, ~ 1599 Кбит/с, 720x400, 25 кадр/с
Аудио: AC3, 2 ch, 192 Кбит/с
Продолжительность: 32 x ~ 00:38:50
Перевод: Не требуется
Cубтитры: нет

Скриншоты



MediaInfo

General
Complete name : C:33.Крепкие орешки.s02.E01.(2022).SATRip.by.Nicodem.Files-x.avi
Format : AVI
Format/Info : Audio Video Interleave
File size : 500 MiB
Duration : 38mn 50s
Overall bit rate : 1 800 Kbps
Writing application : VirtualDubMod 1.5.10.3 | www.virtualdub-fr.org || (build 2550/release)
Writing library : VirtualDubMod build 2550/release
Video
ID : 0
Format : MPEG-4 Visual
Format profile : Advanced Simple@L5
Format settings, BVOP : 1
Format settings, QPel : No
Format settings, GMC : No warppoints
Format settings, Matrix : Custom
Codec ID : XVID
Codec ID/Hint : XviD
Duration : 38mn 50s
Bit rate : 1 599 Kbps
Width : 720 pixels
Height : 400 pixels
Display aspect ratio : 16:9
Frame rate : 25.000 fps
Color space : YUV
Chroma subsampling : 4:2:0
Bit depth : 8 bits
Scan type : Progressive
Compression mode : Lossy
Bits/(Pixel*Frame) : 0.222
Stream size : 444 MiB (89%)
Writing library : XviD 73
Audio
ID : 1
Format : AC-3
Format/Info : Audio Coding 3
Mode extension : CM (complete main)
Codec ID : 2000
Duration : 38mn 50s
Bit rate mode : Constant
Bit rate : 192 Kbps
Channel(s) : 2 channels
Channel positions : Front: L R
Sampling rate : 48.0 KHz
Bit depth : 16 bits
Compression mode : Lossy
Stream size : 53.3 MiB (11%)
Alignment : Split accross interleaves
Interleave, duration : 40 ms (1.00 video frame)
Interleave, preload duration : 500 ms

Содержание

(33) 1 серия "Эта замечательная жизнь"
(34) 2 серия "Паранормальное явление"
(35) 3 серия "Шпионские игры"
(36) 4 серия "Апокалипсис сегодня"
(37) 5 серия "Лжец, Лжец"
(38) 6 серия "Рыбка по имени Ванда"
(39) 7 серия "Бойцовский клуб"
(40) 8 серия "Пьяный мастер"
(41) 9 серия "Сладкая жизнь"
(42) 10 серия "Мстители"
(43) 11 серия "Старикам тут не место"
(44) 12 серия "Терминатор"
(45) 13 серия "Время ведьм"
(46) 14 серия "Телохранитель"
(47) 15 серия "Грязные танцы"
(48) 16 серия "Особь"
(49) 17 серия "Джокер"
(50) 18 серия "Алиса"
(51) 19 серия "Трудная мишень"
(52) 20 серия "Парфюмер"
(53) 21 серия "Беглец"
(54) 22 серия "Золушка"
(55) 23 серия "Скалолаз"
(56) 24 серия "Паразиты"
(57) 25 серия "Никто"
(58) 26 серия "Переговорщик"
(59) 27 серия "Город грехов"
(60) 28 серия "Приговор"
(61) 29 серия "Бросок кобры"
(62) 30 серия "Отпетые мошенники"
(63) 31 серия "Красотка"
(64) 32 серия "Славные парни"

Раздача ведётся путём добавления новых серий

Внимание! Раздача ведётся путём добавления новых серий; при каждом добавлении создаётся новый торрент.
Чтобы начать докачку новой серии, пользователям необходимо сделать следующее:
1. Остановить скачивание;
2. Удалить старый торрент у себя из клиента (старые серии удалять не надо);
3. Скачать новый торрент и запустить его у себя в клиенте вместо старого, при этом указать клиенту путь в старую папку куда и должно происходить скачивание новых серий. Ваш клиент при этом должен произвести хеширование (проверку) старой папки и будет докачивать только те серии, которых у вас ещё нет. Старые серии при этом не удаляются, а продолжают раздаваться! Eсли вы уже удалили старые серии, то предотвратить повторную закачку старых серий можно, отжав галочку в соответствующих местах при запуске нового торрента.
Релиз от:

Release was prepared by RG Files-x

[Profile] [PM]

Nicodem ®

Gender: Male

Longevity: 5 years 6 months

Posts: 1431

Post 03-Oct-2022 12:12 (after 14 days)

[Quote]

ВНИМАНИЕ! ПРОДОЛЖЕНИЕ СЛЕДУЕТ...
[Profile] [PM]

KRIEVS2011

Gender: Male

Longevity: 5 years 4 months

Posts: 647

Location: ☭☭☭ « Латвия - Latvija » « Рига - Riga » ☭☭☭

Post 03-Oct-2022 17:31 (after 5 hours)

[Quote]

Хороший Сериал
Раздающему...
Большое Спасибо !!!
[Profile] [PM]
Display posts:    
Reply to topic

Current time is: 27-May 19:57

All times are UTC + 3



You cannot post new topics in this forum
You cannot reply to topics in this forum
You cannot edit your posts in this forum
You cannot delete your posts in this forum
You cannot vote in polls in this forum
You cannot attach files in this forum
You cannot download files in this forum