Крепкие орешки [3 сезон: 1-14 серии из 32] (2023) WEB-DLRip от Files-x

Reply to topic
 
Author Message

bond74 ®

Gender: Male

Longevity: 5 years 5 months

Posts: 2365

Post 13-Feb-2024 17:26

[Quote]

Крепкие орешки
Год выпуска: 2023
Жанр: Детектив
Выпущено: Россия, Кинокомпания "Триикс Медиа" по заказу Пятого канала
Режиссер: Максим Бриус
В ролях: Филипп Азаров, Борис Бедросов, Гавриил Федотов, Станислав Ткаченко, Олег Метелев, Наталья Рогова, Евгений Тымченко, Владимир Марьянов, Лайла Фахр, Николай Яковлев (III), Кристина Юдичева, Глафира Козулина, Антон Заичкин, Роман Мамонтов, Валентина Муравская, Михаил Караваев, Мария Русских, Алёна Баркова, Надежда Пенкина, Екатерина Зорина, Олег Флеер, Ксения Пацинская, Сергей Костенко, Илья Божко, Степан Пивкин, Дмитрий Соловьёв (II), Юлия Скороход, Фёдор Маяцкий, Татьяна Плетнёва, Богдан Хорохорин, Дмитрий Комлев, Вячеслав Аркунов, Владислав Бургард, Елена Донина
О фильме: В управлении полиции по Комендатскому району произошли кадровые изменения. Сюда из Купчинского управления переводят дерзкого капитана Виктора Ульянова и московского мажора капитана Олега Орлова. После их появления в отделе началось негласное соревнование между "старичками" и "молодыми" за раскрываемость дел и похвалу от начальства. Опыт столкнулся с прытью. Остроты сюжету добавляет и то, что новые сотрудники отдела – Орлов и Ульянов – такие же противоположности друг друга, как Лавров и Романов. Для Ульянова важно быстро получить результат, а цель всегда оправдывает средства. Орлов – сын высокопоставленного московского чиновника, но своим происхождением не кичится и старается это скрывать. Он и в Петербург-то переехал из столицы только для того, чтобы доказать себе и своему отцу, что он может всего добиться сам. Напарники встретили "золотого мальчика" без особой симпатии...

Качество: WEB-DLRip
Видео: XviD, ~ 1600 Кбит/с, 720x400, 25 кадр/с
Аудио: AC3, 2 ch, 192 Кбит/с
Продолжительность: 10 x ~ 00:40:05
Перевод: Не требуется
Cубтитры: Нет

Скриншоты



MediaInfo

Общее
Полное имя : C:\ШОУ\Крепкие орешки.S03.2024.WEB-DLRip.Files-x\02. Крепкие орешки.S03.2024.WEB-DLRip.Files-x.avi
Формат : AVI
Формат/Информация : Audio Video Interleave
Настройки формата : BitmapInfoHeader / WaveFormatEx
Размер файла : 509 Мбайт
Продолжительность : 39 м. 40 с.
Общий поток : 1 792 Кбит/сек
Частота кадров : 25,000 кадров/сек
Программа кодирования : VirtualDubMod 1.5.10.3 | www.virtualdub-fr.org || (build 2550/release)
Библиотека кодирования : VirtualDubMod build 2550/release
Видео
Идентификатор : 0
Формат : MPEG-4 Visual
Профиль формата : Advanced Simple@L5
Настройки формата : BVOP1 / Custom Matrix
Параметр BVOP формата : 1
Параметр QPel формата : Нет
Параметр GMC формата : Без точки перехода
Параметр матрицы формата : Выборочная
Идентификатор кодека : XVID
Идентификатор кодека/Подсказка : XviD
Продолжительность : 39 м. 40 с.
Битрейт : 1 591 Кбит/сек
Ширина : 720 пикселей
Высота : 400 пикселей
Соотношение сторон : 16:9
Частота кадров : 25,000 кадров/сек
Цветовое пространство : YUV
Субдискретизация насыщенности : 4:2:0
Битовая глубина : 8 бит
Тип развёртки : Прогрессивная
Метод сжатия : С потерями
Бит/(Пиксели*Кадры) : 0.221
Размер потока : 451 Мбайт (89%)
Библиотека кодирования : XviD 73
Аудио
Идентификатор : 1
Формат : AC-3
Формат/Информация : Audio Coding 3
Коммерческое название : Dolby Digital
Идентификатор кодека : 2000
Продолжительность : 39 м. 40 с.
Вид битрейта : Постоянный
Битрейт : 192 Кбит/сек
Каналы : 2 канала
Channel layout : L R
Частота : 48,0 КГц
Частота кадров : 31,250 кадров/сек (1536 SPF)
Метод сжатия : С потерями
Размер потока : 54,5 Мбайт (11%)
Выравнивание : Разделение по промежуткам
Продолжительность промежутка : 40 мс. (1,00 видеокадр)
Время предзагрузки промежутка : 500 мс.
Service kind : Complete Main

Содержание

(65) 1 серия "V значит вендетта"
(66) 2 серия "Отступники"
(67) 3 серия "Игра по понижение"
(68) 4 серия "Остров проклятыых"
(69) 5 серия "Исчезнувшая"
(70) 6 серия "Хижина в лесу"
(71) 7 серия "Достучаться до небес"
(72) 8 серия "Основной инстинкт"
(73) 9 серия "Смертельное оружие"
(74) 10 серия "Гнев человеческий"
(75) 11 серия "Окно во двор"
(76) 12 серия "Заложница"
(77) 13 серия "Сломанные цветы"
(78) 14 серия "Жестокие игры"
(79) 15 серия "Гамбит"
(80) 16 серия "Жизнь других"
(81) 17 серия ""
(82) 18 серия ""
(83) 19 серия ""
(84) 20 серия ""
(85) 21 серия ""
(86) 22 серия ""
(87) 23 серия ""
(88) 24 серия ""
(89) 25 серия ""
(90) 26 серия ""
(91) 27 серия ""
(92) 28 серия ""
(93) 29 серия ""
(94) 30 серия ""
(95) 31 серия ""
(96) 32 серия ""

Раздача ведётся путём добавления новых серий

Внимание! Раздача ведётся путём добавления новых серий; при каждом добавлении создаётся новый торрент.
Чтобы начать докачку новой серии, пользователям необходимо сделать следующее:
1. Остановить скачивание;
2. Удалить старый торрент у себя из клиента (старые серии удалять не надо);
3. Скачать новый торрент и запустить его у себя в клиенте вместо старого, при этом указать клиенту путь в старую папку куда и должно происходить скачивание новых серий. Ваш клиент при этом должен произвести хеширование (проверку) старой папки и будет докачивать только те серии, которых у вас ещё нет. Старые серии при этом не удаляются, а продолжают раздаваться! Eсли вы уже удалили старые серии, то предотвратить повторную закачку старых серий можно, отжав галочку в соответствующих местах при запуске нового торрента.
Релиз от:

Release was prepared by RG Files-x

[Profile] [PM]
Display posts:    
Reply to topic

Current time is: 24-Apr 09:09

All times are UTC + 3



You cannot post new topics in this forum
You cannot reply to topics in this forum
You cannot edit your posts in this forum
You cannot delete your posts in this forum
You cannot vote in polls in this forum
You cannot attach files in this forum
You cannot download files in this forum