Крепкие орешки [2 сезон: 1-32 серии из 32] (2022) WEB-DLRip от Files-x

Reply to topic
 
Author Message

patriot67 ®

Gender: Male

Longevity: 4 years 5 months

Posts: 245

Post 26-Feb-2024 21:10

[Quote]

Крепкие орешки Год выпуска: 2022
Жанр: Детектив, криминал
Выпущено: Россия, Кинокомпания "Триикс Медиа" по заказу Пятого канала
Режиссер: Дмитрий Аверин (II), Андрей Коршунов, Михаил Вассербаум, Сергей Полуянов (II), Максим Бриус
В ролях: Филипп Азаров, Борис Бедросов, Вячеслав Аркунов, Андрей Бабенко, Екатерина Зорина, Даниил Щипицын, Олег Абалян, Анатолий Дубанов, Олег Метелев, Алла Одинг, Иван Федорук, Наталья Свешникова, Лиза Медведева, Евгений Пилипенко, Денис Портнов, Александра Морозова (II), Лайма Зайцева, Виталий Кривонос, Алексей Парасевич, Александр Иванов (VIII), Светлана Перфильева, Тадас Шимилёв, Вячеслав Гумеров, Виталий Горев, Евгений Тележкин, Александр Карпухов, Павел Платонов (младший), Екатерина Зеленцова, Наталья Бурмистрова, Вера Тран, Александр Бахаревский, Антон Чернов, Елизавета Ковалёва, Дмитрий Олейник, Александр Мосолов, Евгений Катаев, Кристина Иёшкина, Маргарита Бычкова, Иван Сямянен, Игорь Ключников, Валентин Бугаев, Ольга Любимова (II), Иван Солнцев, Сергей Демидов, Елена Агеева (II), Денис Козинец, Андрей Москвичёв, Николай Иванов (VII), Ксения Асмоловская, Дмитрий Бауман, Григорий Каценельсон, Аркадий Гриф, Наталья Индейкина, Виктор Бабич, Александр Майоров, Ирина Ракшина, Арсений Кожемякин, Владимир Брест, Ольга Кожевникова, Сергей Евсеев, Кирилл Капица, Анатолий Краснопивцев, Владимир Ляхов (II), Варвара Резвова, Николай Поздняков, Александр Тарханов, Вадим Франчук, Игорь Милетский, Дмитрий Барков (II), Иван Васильев
О фильме: Во втором сезоне главным героям Юрию Романову и Леониду Лаврову предстоит расследовать и распутывать еще более сложные дела. Зачастую ситуация будет выходить из-под контроля, а жизни оперативников - висеть на волоске от смерти. Известный наркоторговец, которого задержал Лавров, решит отомстить своему «обидчику» и наймет киллера. Остаться в живых полицейскому поможет только чудо. Удастся ли ему избежать отравления клофелином и вместе с напарником вовремя обезвредить взрывные устройства?

Качество: WEB-DLRip
Видео: XviD, ~ 1600 Кбит/с, 720x400, 25 кадр/с
Аудио: AC3, 2 ch, 192 Кбит/с
Продолжительность: 32 х ~ 00:39:31
Перевод: Не требуется
Cубтитры: Нет

Скриншоты


MediaInfo

General
Complete name : F:\Крепкие орешки.S02.(2022).WEB-DLRip.Files-x\01.Крепкие орешки.S02.(2022).WEB-DLRip.by.Серый1779.Files-x.avi
Format : AVI
Format/Info : Audio Video Interleave
File size : 507 MiB
Duration : 39 min 31 s
Overall bit rate : 1 793 kb/s
Writing application : VirtualDubMod 1.5.10.3 | www.virtualdub-fr.org || (build 2550/release)
Writing library : VirtualDubMod build 2550/release
Video
ID : 0
Format : MPEG-4 Visual
Format profile : Advanced Simple@L5
Format settings : BVOP1 / Custom Matrix
Format settings, BVOP : 1
Format settings, QPel : No
Format settings, GMC : No warppoints
Format settings, Matrix : Custom
Codec ID : XVID
Codec ID/Hint : XviD
Duration : 39 min 31 s
Bit rate : 1 591 kb/s
Width : 720 pixels
Height : 400 pixels
Display aspect ratio : 16:9
Frame rate : 25.000 FPS
Color space : YUV
Chroma subsampling : 4:2:0
Bit depth : 8 bits
Scan type : Progressive
Compression mode : Lossy
Bits/(Pixel*Frame) : 0.221
Stream size : 450 MiB (89%)
Writing library : XviD 73
Audio
ID : 1
Format : AC-3
Format/Info : Audio Coding 3
Format settings, Endianness : Big
Codec ID : 2000
Duration : 39 min 31 s
Bit rate mode : Constant
Bit rate : 192 kb/s
Channel(s) : 2 channels
Channel positions : Front: L R
Sampling rate : 48.0 kHz
Frame rate : 31.250 FPS (1536 SPF)
Bit depth : 16 bits
Compression mode : Lossy
Stream size : 54.3 MiB (11%)
Alignment : Split accross interleaves
Interleave, duration : 40 ms (1.00 video frame)
Interleave, preload duration : 500 ms
Service kind : Complete Main

Внимание! Раздача ведётся путём добавления новых серий

Раздача ведётся путём добавления новых серий, при каждом добавлении создаётся новый торрент. Чтобы начать докачку новой серии, пользователям необходимо сделать следующее:
- Остановить скачивание.
- Удалить старый торрент у себя из клиента (старые серии удалять не надо).
- Скачать новый торрент и запустить его у себя в клиенте вместо старого, при этом указать клиенту путь в старую папку куда и должно происходить скачивание новых серий.
Ваш клиент при этом должен произвести хеширование (проверку) старой папки (если не производит сам - помогите ему сделать это), и будет докачивать только те серии которых у вас ещё нет. Старые серии при этом не удаляются, а продолжают раздаваться!
Релиз от:

Release was prepared by RG Files-x

[Profile] [PM]
Display posts:    
Reply to topic

Current time is: 24-Apr 08:54

All times are UTC + 3



You cannot post new topics in this forum
You cannot reply to topics in this forum
You cannot edit your posts in this forum
You cannot delete your posts in this forum
You cannot vote in polls in this forum
You cannot attach files in this forum
You cannot download files in this forum