Крепкие орешки [3 сезон: 1-14 серии из 32] (2023) WEB-DL 1080p от Files-x

Reply to topic
 
Author Message

bond74 ®

Gender: Male

Longevity: 5 years 5 months

Posts: 2365

Post 13-Feb-2024 17:18

[Quote]

Крепкие орешки
Год выпуска: 2023
Жанр: Детектив
Выпущено: Россия, Кинокомпания "Триикс Медиа" по заказу Пятого канала
Режиссер: Максим Бриус
В ролях: Филипп Азаров, Борис Бедросов, Гавриил Федотов, Станислав Ткаченко, Олег Метелев, Наталья Рогова, Евгений Тымченко, Владимир Марьянов, Лайла Фахр, Николай Яковлев (III), Кристина Юдичева, Глафира Козулина, Антон Заичкин, Роман Мамонтов, Валентина Муравская, Михаил Караваев, Мария Русских, Алёна Баркова, Надежда Пенкина, Екатерина Зорина, Олег Флеер, Ксения Пацинская, Сергей Костенко, Илья Божко, Степан Пивкин, Дмитрий Соловьёв (II), Юлия Скороход, Фёдор Маяцкий, Татьяна Плетнёва, Богдан Хорохорин, Дмитрий Комлев, Вячеслав Аркунов, Владислав Бургард, Елена Донина
О фильме: В управлении полиции по Комендатскому району произошли кадровые изменения. Сюда из Купчинского управления переводят дерзкого капитана Виктора Ульянова и московского мажора капитана Олега Орлова. После их появления в отделе началось негласное соревнование между "старичками" и "молодыми" за раскрываемость дел и похвалу от начальства. Опыт столкнулся с прытью. Остроты сюжету добавляет и то, что новые сотрудники отдела – Орлов и Ульянов – такие же противоположности друг друга, как Лавров и Романов. Для Ульянова важно быстро получить результат, а цель всегда оправдывает средства. Орлов – сын высокопоставленного московского чиновника, но своим происхождением не кичится и старается это скрывать. Он и в Петербург-то переехал из столицы только для того, чтобы доказать себе и своему отцу, что он может всего добиться сам. Напарники встретили "золотого мальчика" без особой симпатии...

Качество: WEB-DL 1080p
Видео: MPEG-4 AVC, ~ 1800 Кбит/с, 1920x1080, 25 кадр/с, 25 кадр/с
Аудио: AC3, 2 ch, 192 Кбит/с
Продолжительность: 2 x ~ 00:40:05
Перевод: Не требуется
Cубтитры: Нет

Скриншоты



MediaInfo

Общее
Уникальный идентификатор : 227613179297220234201551750960271619876 (0xAB3CB42A91F8C0238CDCC84B673C7724)
Полное имя : C:\ШОУ\Крепкие орешки.S03.2024.WEB-DL 1080p.Files-x\02. Крепкие орешки.S03.2024.WEB-DL 1080p.Files-x.mkv
Формат : Matroska
Версия формата : Version 4
Размер файла : 549 Мбайт
Продолжительность : 39 м. 40 с.
Общий поток : 1 935 Кбит/сек
Частота кадров : 25,000 кадров/сек
Дата кодирования : 2024-02-12 12:14:14 UTC
Программа кодирования : mkvmerge v7.8.0 ('River Man') 32bit built on Apr 3 2015 12:11:22
Библиотека кодирования : libebml v1.3.1 + libmatroska v1.4.2
Видео
Идентификатор : 1
Формат : AVC
Формат/Информация : Advanced Video Codec
Профиль формата : High@L4
Настройки формата : CABAC / 3 Ref Frames
Параметр CABAC формата : Да
Параметр RefFrames формата : 3 кадра
Идентификатор кодека : V_MPEG4/ISO/AVC
Продолжительность : 39 м. 40 с.
Битрейт : 1 742 Кбит/сек
Ширина : 1 920 пикселей
Высота : 1 080 пикселей
Соотношение сторон : 16:9
Режим частоты кадров : Постоянный
Частота кадров : 25,000 кадров/сек
Цветовое пространство : YUV
Субдискретизация насыщенности : 4:2:0
Битовая глубина : 8 бит
Тип развёртки : Прогрессивная
Бит/(Пиксели*Кадры) : 0.034
Размер потока : 494 Мбайт (90%)
Библиотека кодирования : x264 core 155 r2901 7d0ff22
Default : Да
Forced : Нет
Цветовой диапазон : Limited
Основные цвета : BT.709
Характеристики трансфера : BT.709
Коэффициенты матрицы : BT.709
Аудио
Идентификатор : 2
Формат : AC-3
Формат/Информация : Audio Coding 3
Коммерческое название : Dolby Digital
Идентификатор кодека : A_AC3
Продолжительность : 39 м. 40 с.
Вид битрейта : Постоянный
Битрейт : 192 Кбит/сек
Каналы : 2 канала
Channel layout : L R
Частота : 44,1 КГц
Частота кадров : 28,711 кадров/сек (1536 SPF)
Метод сжатия : С потерями
Размер потока : 54,5 Мбайт (10%)
Service kind : Complete Main
Default : Да
Forced : Нет

Раздача ведётся путём добавления новых серий

Внимание! Раздача ведётся путём добавления новых серий; при каждом добавлении создаётся новый торрент.
Чтобы начать докачку новой серии, пользователям необходимо сделать следующее:
1. Остановить скачивание;
2. Удалить старый торрент у себя из клиента (старые серии удалять не надо);
3. Скачать новый торрент и запустить его у себя в клиенте вместо старого, при этом указать клиенту путь в старую папку куда и должно происходить скачивание новых серий. Ваш клиент при этом должен произвести хеширование (проверку) старой папки и будет докачивать только те серии, которых у вас ещё нет. Старые серии при этом не удаляются, а продолжают раздаваться! Eсли вы уже удалили старые серии, то предотвратить повторную закачку старых серий можно, отжав галочку в соответствующих местах при запуске нового торрента.
Релиз от:

Release was prepared by RG Files-x

[Profile] [PM]
Display posts:    
Reply to topic

Current time is: 24-Apr 10:05

All times are UTC + 3



You cannot post new topics in this forum
You cannot reply to topics in this forum
You cannot edit your posts in this forum
You cannot delete your posts in this forum
You cannot vote in polls in this forum
You cannot attach files in this forum
You cannot download files in this forum