Соседка [1 сезон: 1-12 серии из 12] (2023) HDTV 1080p от Files-x

Reply to topic
 
Author Message

Nicodem ®

Gender: Male

Longevity: 5 years 8 months

Posts: 1444

Post 20-Nov-2023 20:58

[Quote]

Соседка
Год выпуска: 2023
Жанр: Лирическая комедия
Выпущено: Россия, ТНТ, PREMIER, Good Story Media
Режиссер: Байбулат Батулла
В ролях: Егор Корешков, Юлия Хлынина, Дмитрий Лысенков, Алексей Чадов, Елена Валюшкина, Дарья Пицик, Анастасия Светлова, Мария Шумакова, Игорь Чернявый, Игорь Хрипунов, Диана Огай
О фильме: Тридцатипятилетний Фёдор Садовский — скромный директор клининговой компании, в чьей жизни давно нет места ни новым людям, ни уж тем более подвигам. Последние несколько лет его единственные развлечения — работа и шахматные турниры с лучшим другом Борей. При этом на доме, в котором проживает Фёдор, висит мемориальная доска в память об его отце — знаменитом советском космонавте, в тени славы которого Фёдор живет с самого детства. Всё меняется, когда в квартиру напротив вселяется Алёна — девушка из Сальска, которая не знает никаких границ — ни личных, ни коммунальных. На первый взгляд, между ними нет ничего общего, но незаметно для себя Фёдор влюбляется. Правда, ситуация обостряется наличием бывшего мужа Алены — ревнивого ВДВшника Серёги

Качество: HDTV 1080p
Видео: MPEG-4 AVC, ~ 6505 Кбит/с, 1920x1080, 25 кадр/с
Аудио: MP2, 2 ch, 192 Кбит/с
Продолжительность: 12 х 00:20:40
Перевод: Не требуется
Субтитры: Нет

Скриншоты



MediaInfo

General
ID : 1 (0x1)
Complete name : C:01.Соседка.s01.E01.(2023).HDTV.(1080p).by.Nicodem.Files-x.ts
Format : MPEG-TS
File size : 1.12 GiB
Duration : 22mn 41s
Overall bit rate : 7 047 Kbps
Maximum Overall bit rate : 35.5 Mbps
Video
ID : 4113 (0x1011)
Menu ID : 1 (0x1)
Format : AVC
Format/Info : Advanced Video Codec
Format profile : High@L4.1
Format settings, CABAC : No
Format settings, ReFrames : 3 frames
Codec ID : 27
Duration : 22mn 41s
Bit rate mode : Variable
Bit rate : 6 505 Kbps
Maximum bit rate : 40.0 Mbps
Width : 1 920 pixels
Height : 1 080 pixels
Display aspect ratio : 16:9
Frame rate : 25.000 fps
Color space : YUV
Chroma subsampling : 4:2:0
Bit depth : 8 bits
Scan type : Progressive
Bits/(Pixel*Frame) : 0.125
Stream size : 1.03 GiB (92%)
Language : English
Audio
ID : 4352 (0x1100)
Menu ID : 1 (0x1)
Format : MPEG Audio
Format version : Version 1
Format profile : Layer 2
Codec ID : 4
Duration : 22mn 41s
Bit rate mode : Constant
Bit rate : 192 Kbps
Channel(s) : 2 channels
Sampling rate : 48.0 KHz
Compression mode : Lossy
Stream size : 31.2 MiB (3%)

Раздача ведётся путём добавления новых серий

Внимание! Раздача ведётся путём добавления новых серий; при каждом добавлении создаётся новый торрент.
Чтобы начать докачку новой серии, пользователям необходимо сделать следующее:
1. Остановить скачивание;
2. Удалить старый торрент у себя из клиента (старые серии удалять не надо);
3. Скачать новый торрент и запустить его у себя в клиенте вместо старого, при этом указать клиенту путь в старую папку куда и должно происходить скачивание новых серий. Ваш клиент при этом должен произвести хеширование (проверку) старой папки и будет докачивать только те серии, которых у вас ещё нет. Старые серии при этом не удаляются, а продолжают раздаваться! Eсли вы уже удалили старые серии, то предотвратить повторную закачку старых серий можно, отжав галочку в соответствующих местах при запуске нового торрента.
Релиз от:

Release was prepared by RG Files-x

[Profile] [PM]
Display posts:    
Reply to topic

Current time is: 19-Jul 12:20

All times are UTC + 3



You cannot post new topics in this forum
You cannot reply to topics in this forum
You cannot edit your posts in this forum
You cannot delete your posts in this forum
You cannot vote in polls in this forum
You cannot attach files in this forum
You cannot download files in this forum