Соседка [1 сезон: 1-12 серии из 12] (2023) WEBRip 720p от Files-x

Reply to topic
 
Author Message

bond74 ®

Gender: Male

Longevity: 5 years 3 months

Posts: 2239

Post 24-Nov-2023 20:56

[Quote]

Соседка
Год выпуска: 2023
Жанр: Лирическая комедия
Выпущено: Россия, ТНТ, PREMIER, Good Story Media
Режиссер: Байбулат Батулла
В ролях: Егор Корешков, Юлия Хлынина, Дмитрий Лысенков, Алексей Чадов, Елена Валюшкина, Дарья Пицик, Анастасия Светлова, Мария Шумакова, Игорь Чернявый, Игорь Хрипунов, Диана Огай
О фильме: Тридцатипятилетний Фёдор Садовский — скромный директор клининговой компании, в чьей жизни давно нет места ни новым людям, ни уж тем более подвигам. Последние несколько лет его единственные развлечения — работа и шахматные турниры с лучшим другом Борей. При этом на доме, в котором проживает Фёдор, висит мемориальная доска в память об его отце — знаменитом советском космонавте, в тени славы которого Фёдор живет с самого детства. Всё меняется, когда в квартиру напротив вселяется Алёна — девушка из Сальска, которая не знает никаких границ — ни личных, ни коммунальных. На первый взгляд, между ними нет ничего общего, но незаметно для себя Фёдор влюбляется. Правда, ситуация обостряется наличием бывшего мужа Алены — ревнивого ВДВшника Серёги

Качество: WEBRip 720p
Видео: MPEG-4 AVC, ~ 3000 Кбит/с, 1280x640
Аудио: AC3, 2 ch, 192 Кбит/с
Продолжительность: 8 х 00:20:40
Перевод: Не требуется
Субтитры: Нет

Скриншоты



MediaInfo

Общее
Уникальный идентификатор : 254239722513412739160199234176312514452 (0xBF44CA1A523487C78D5C3C424C999794)
Полное имя : C:\films\Соседка.2023.WEB-DL 720p.Files-x\05. Соседка.2023.WEB-DL 720p.Files-x.mkv
Формат : Matroska
Версия формата : Version 4
Размер файла : 580 Мбайт
Продолжительность : 26 м. 12 с.
Режим общего битрейта : Переменный
Общий поток : 3 093 Кбит/сек
Частота кадров : 25,000 кадров/сек
Дата кодирования : 2023-11-22 21:45:48 UTC
Программа кодирования : mkvmerge v7.8.0 ('River Man') 32bit built on Apr 3 2015 12:11:22
Библиотека кодирования : libebml v1.3.1 + libmatroska v1.4.2
Видео
Идентификатор : 1
Формат : AVC
Формат/Информация : Advanced Video Codec
Профиль формата : High@L4.1
Настройки формата : CABAC / 4 Ref Frames
Параметр CABAC формата : Да
Параметр RefFrames формата : 4 кадра
Идентификатор кодека : V_MPEG4/ISO/AVC
Продолжительность : 26 м. 11 с.
Вид битрейта : Переменный
Битрейт : 2 899 Кбит/сек
Максимальный битрейт : 3 000 Кбит/сек
Ширина : 1 280 пикселей
Высота : 640 пикселей
Соотношение сторон : 2,000
Режим частоты кадров : Постоянный
Частота кадров : 25,000 кадров/сек
Цветовое пространство : YUV
Субдискретизация насыщенности : 4:2:0
Битовая глубина : 8 бит
Тип развёртки : Прогрессивная
Бит/(Пиксели*Кадры) : 0.142
Размер потока : 543 Мбайт (94%)
Default : Да
Forced : Нет
Цветовой диапазон : Limited
Основные цвета : BT.709
Характеристики трансфера : BT.709
Коэффициенты матрицы : BT.709
Аудио
Идентификатор : 2
Формат : AC-3
Формат/Информация : Audio Coding 3
Коммерческое название : Dolby Digital
Идентификатор кодека : A_AC3
Продолжительность : 26 м. 12 с.
Вид битрейта : Постоянный
Битрейт : 192 Кбит/сек
Каналы : 2 канала
Channel layout : L R
Частота : 48,0 КГц
Частота кадров : 31,250 кадров/сек (1536 SPF)
Метод сжатия : С потерями
Задержка видео : -120 мс.
Размер потока : 36,0 Мбайт (6%)
Service kind : Complete Main
Default : Да
Forced : Нет

Раздача ведётся путём добавления новых серий

Внимание! Раздача ведётся путём добавления новых серий; при каждом добавлении создаётся новый торрент.
Чтобы начать докачку новой серии, пользователям необходимо сделать следующее:
1. Остановить скачивание;
2. Удалить старый торрент у себя из клиента (старые серии удалять не надо);
3. Скачать новый торрент и запустить его у себя в клиенте вместо старого, при этом указать клиенту путь в старую папку куда и должно происходить скачивание новых серий. Ваш клиент при этом должен произвести хеширование (проверку) старой папки и будет докачивать только те серии, которых у вас ещё нет. Старые серии при этом не удаляются, а продолжают раздаваться! Eсли вы уже удалили старые серии, то предотвратить повторную закачку старых серий можно, отжав галочку в соответствующих местах при запуске нового торрента.
Релиз от:

Release was prepared by RG Files-x

[Profile] [PM]
Display posts:    
Reply to topic

Current time is: 21-Feb 05:24

All times are UTC + 3



You cannot post new topics in this forum
You cannot reply to topics in this forum
You cannot edit your posts in this forum
You cannot delete your posts in this forum
You cannot vote in polls in this forum
You cannot attach files in this forum
You cannot download files in this forum