Соседка [1 сезон: 1-12 серии из 12] (2023) WEBRip от Files-x

Reply to topic
 
Author Message

bond74 ®

Gender: Male

Longevity: 5 years 3 months

Posts: 2239

Post 24-Nov-2023 20:53

[Quote]

Соседка
Год выпуска: 2023
Жанр: Лирическая комедия
Выпущено: Россия, ТНТ, PREMIER, Good Story Media
Режиссер: Байбулат Батулла
В ролях: Егор Корешков, Юлия Хлынина, Дмитрий Лысенков, Алексей Чадов, Елена Валюшкина, Дарья Пицик, Анастасия Светлова, Мария Шумакова, Игорь Чернявый, Игорь Хрипунов, Диана Огай
О фильме: Тридцатипятилетний Фёдор Садовский — скромный директор клининговой компании, в чьей жизни давно нет места ни новым людям, ни уж тем более подвигам. Последние несколько лет его единственные развлечения — работа и шахматные турниры с лучшим другом Борей. При этом на доме, в котором проживает Фёдор, висит мемориальная доска в память об его отце — знаменитом советском космонавте, в тени славы которого Фёдор живет с самого детства. Всё меняется, когда в квартиру напротив вселяется Алёна — девушка из Сальска, которая не знает никаких границ — ни личных, ни коммунальных. На первый взгляд, между ними нет ничего общего, но незаметно для себя Фёдор влюбляется. Правда, ситуация обостряется наличием бывшего мужа Алены — ревнивого ВДВшника Серёги

Качество: WEBRip
Видео: XviD, 1600 Кбит/с, 704x352
Аудио: AC3, 2 ch, 192 Кбит/с
Продолжительность: 8 х 00:20:40
Перевод: Не требуется
Субтитры: Нет

Скриншоты




MediaInfo

Общее
Полное имя : C:\films\Соседка.2023.WEB-DLRip.Files-x\05 Соседка.2023.WEB-DLRip.Files-x.avi
Формат : AVI
Формат/Информация : Audio Video Interleave
Настройки формата : BitmapInfoHeader / WaveFormatEx
Размер файла : 326 Мбайт
Продолжительность : 26 м. 11 с.
Общий поток : 1 740 Кбит/сек
Частота кадров : 25,000 кадров/сек
Программа кодирования : VirtualDubMod 1.5.10.3 | www.virtualdub-fr.org || (build 2550/release)
Библиотека кодирования : VirtualDubMod build 2550/release
Видео
Идентификатор : 0
Формат : MPEG-4 Visual
Профиль формата : Advanced Simple@L5
Настройки формата : BVOP1 / Custom Matrix
Параметр BVOP формата : 1
Параметр QPel формата : Нет
Параметр GMC формата : Без точки перехода
Параметр матрицы формата : Выборочная
Идентификатор кодека : XVID
Идентификатор кодека/Подсказка : XviD
Продолжительность : 26 м. 11 с.
Битрейт : 1 538 Кбит/сек
Ширина : 704 пикселя
Высота : 352 пикселя
Соотношение сторон : 2,000
Частота кадров : 25,000 кадров/сек
Цветовое пространство : YUV
Субдискретизация насыщенности : 4:2:0
Битовая глубина : 8 бит
Тип развёртки : Прогрессивная
Метод сжатия : С потерями
Бит/(Пиксели*Кадры) : 0.248
Размер потока : 288 Мбайт (88%)
Библиотека кодирования : XviD 73
Аудио
Идентификатор : 1
Формат : AC-3
Формат/Информация : Audio Coding 3
Коммерческое название : Dolby Digital
Идентификатор кодека : 2000
Продолжительность : 26 м. 11 с.
Вид битрейта : Постоянный
Битрейт : 192 Кбит/сек
Каналы : 2 канала
Channel layout : L R
Частота : 48,0 КГц
Частота кадров : 31,250 кадров/сек (1536 SPF)
Метод сжатия : С потерями
Размер потока : 36,0 Мбайт (11%)
Выравнивание : Разделение по промежуткам
Продолжительность промежутка : 40 мс. (1,00 видеокадр)
Время предзагрузки промежутка : 500 мс.
Service kind : Complete Main

Раздача ведётся путём добавления новых серий

Внимание! Раздача ведётся путём добавления новых серий; при каждом добавлении создаётся новый торрент.
Чтобы начать докачку новой серии, пользователям необходимо сделать следующее:
1. Остановить скачивание;
2. Удалить старый торрент у себя из клиента (старые серии удалять не надо);
3. Скачать новый торрент и запустить его у себя в клиенте вместо старого, при этом указать клиенту путь в старую папку куда и должно происходить скачивание новых серий. Ваш клиент при этом должен произвести хеширование (проверку) старой папки и будет докачивать только те серии, которых у вас ещё нет. Старые серии при этом не удаляются, а продолжают раздаваться! Eсли вы уже удалили старые серии, то предотвратить повторную закачку старых серий можно, отжав галочку в соответствующих местах при запуске нового торрента.
Релиз от:

Release was prepared by RG Files-x

[Profile] [PM]
Display posts:    
Reply to topic

Current time is: 21-Feb 04:07

All times are UTC + 3



You cannot post new topics in this forum
You cannot reply to topics in this forum
You cannot edit your posts in this forum
You cannot delete your posts in this forum
You cannot vote in polls in this forum
You cannot attach files in this forum
You cannot download files in this forum