Голодные Игры: Квадрология / The Hunger Games: Quadrilogy (2012 - 2015) BDRip 1080p | Лицензия | iTunes

Reply to topic
 
Author Message

HardwareMining ®

Gender: Male

Longevity: 4 years 6 months

Posts: 603

Post 28-Feb-2024 16:44

[Quote]

Голодные Игры: Квадрология / The Hunger Games: Quadrilogy

Голодные игры / The Hunger Games - 2012

Голодные игры / The Hunger Games
«Весь мир смотрит»
Год выпуска: 2012
Жанр: фантастика, боевик, триллер, приключения
Выпущено: США | Color Force, Lions Gate Films
Режиссер: Гэри Росс
В ролях: Дженнифер Лоуренс, Джош Хатчерсон, Лиам Хемсворт, Вуди Харрельсон, Элизабет Бэнкс, Уэс Бентли, Дональд Сазерленд, Стэнли Туччи, Ленни Кравиц, Амандла Стенберга
О фильме:
Будущее. Деспотичное государство ежегодно устраивает показательные игры на выживание, за которыми в прямом эфире следит весь мир. Жребий участвовать в Играх выпадает юной Китнисс и тайно влюбленному в нее Питу. Они знакомы с детства, но теперь должны стать врагами. Ведь по нерушимому закону Голодных игр победить может только один из 24 участников. Судьям не важно, кто выиграет, главное — зрелище. И на этот раз зрелище будет незабываемым.

Качество: BDRip 1080p
Видео: AVC, 1920x800 (2,40:1), 23,976 fps, 19.0 Mb/s (0.515 bit/pixel)
Аудио:#1 русский, AC3, 5.1, 48 kHz, 640 kbps CBR
Аудио:#2 английский, DTS-HD MA, 5.1, 48 kHz, 1941 kbps CBR
Продолжительность: 02:22:33
Перевод: Дублированный | Лицензия
Субтитры: Отсутствуют

Скриншоты

MediaInfo

General
Unique ID : 199867342512123057145005818023656443190 (0x965D0CCBCFCBBD528A7697826D9A4D36)
Complete name : E:\GF\The Hunger Games Quadrilogy\The.Hunger.Games.2012.BDRip.1080p.Rip.by.HardwareMining.R.G.Generalfilm.mkv
Format : Matroska
Format version : Version 2
File size : 24.0 GiB
Duration : 2 h 22 min
Overall bit rate mode : Variable
Overall bit rate : 24.1 Mb/s
Frame rate : 23.976 FPS
Movie name : The.Hunger.Games.2012.BDRip.1080p.Rip.by.HardwareMining.R.G.Generalfilm
Encoded date : 2024-02-25 09:46:59 UTC
Writing application : mkvmerge v5.0.1 ('Es ist Sommer') built on Oct 9 2011 11:55:43
Writing library : libebml v1.2.2 + libmatroska v1.3.0
Cover : Yes
Attachments : cover.png
Video
ID : 1
Format : AVC
Format/Info : Advanced Video Codec
Format profile : High@L4.1
Format settings : CABAC / 5 Ref Frames
Format settings, CABAC : Yes
Format settings, Reference frames : 5 frames
Muxing mode : Header stripping
Codec ID : V_MPEG4/ISO/AVC
Duration : 2 h 22 min
Nominal bit rate : 19.0 Mb/s
Width : 1 920 pixels
Height : 800 pixels
Display aspect ratio : 2.40:1
Frame rate mode : Constant
Frame rate : 23.976 (24000/1001) FPS
Color space : YUV
Chroma subsampling : 4:2:0
Bit depth : 8 bits
Scan type : Progressive
Bits/(Pixel*Frame) : 0.515
Writing library : x264 core 148 r2638 7599210
Encoding settings : cabac=1 / ref=5 / deblock=1:-2:-1 / analyse=0x3:0x113 / me=umh / subme=10 / psy=1 / psy_rd=0.00:0.15 / mixed_ref=1 / me_range=32 / chroma_me=1 / trellis=2 / 8x8dct=1 / cqm=0 / deadzone=21,11 / fast_pskip=0 / chroma_qp_offset=-3 / threads=25 / lookahead_threads=2 / sliced_threads=0 / nr=0 / decimate=0 / interlaced=0 / bluray_compat=0 / constrained_intra=0 / bframes=4 / b_pyramid=2 / b_adapt=2 / b_bias=0 / direct=1 / weightb=1 / open_gop=0 / weightp=2 / keyint=240 / keyint_min=23 / scenecut=40 / intra_refresh=0 / rc_lookahead=40 / rc=2pass / mbtree=0 / bitrate=18960 / ratetol=1.0 / qcomp=0.65 / qpmin=0 / qpmax=69 / qpstep=4 / cplxblur=20.0 / qblur=0.5 / vbv_maxrate=50000 / vbv_bufsize=65500 / nal_hrd=none / filler=0 / ip_ratio=1.40 / pb_ratio=1.30 / aq=1:2.00
Language : English
Default : Yes
Forced : No
Audio #1
ID : 2
Format : AC-3
Format/Info : Audio Coding 3
Commercial name : Dolby Digital
Muxing mode : Header stripping
Codec ID : A_AC3
Duration : 2 h 22 min
Bit rate mode : Constant
Bit rate : 640 kb/s
Channel(s) : 6 channels
Channel layout : L R C LFE Ls Rs
Sampling rate : 48.0 kHz
Frame rate : 31.250 FPS (1536 SPF)
Compression mode : Lossy
Stream size : 653 MiB (3%)
Title : Dub | Лицензия
Language : Russian
Service kind : Complete Main
Default : Yes
Forced : Yes
Audio #2
ID : 3
Format : DTS XLL
Format/Info : Digital Theater Systems
Commercial name : DTS-HD Master Audio
Muxing mode : Header stripping
Codec ID : A_DTS
Duration : 2 h 22 min
Bit rate mode : Variable
Channel(s) : 6 channels
Channel(s)_Original : 8 channels
ChannelLayout_Original : C L R LFE Lb Rb Lss Rss
Sampling rate : 48.0 kHz
Frame rate : 93.750 FPS (512 SPF)
Bit depth : 24 bits
Compression mode : Lossless
Title : Original
Language : English
Default : No
Forced : No
Menu
00:00:00.000 : en:(01)00:00:00:000
00:10:05.813 : en:(02)00:10:05:813
00:18:00.078 : en:(03)00:18:00:078
00:25:05.879 : en:(04)00:25:05:879
00:31:12.662 : en:(05)00:31:12:662
00:43:28.564 : en:(06)00:43:28:564
00:50:38.702 : en:(07)00:50:38:702
00:56:58.915 : en:(08)00:56:58:915
01:06:57.763 : en:(09)01:06:57:763
01:15:58.970 : en:(10)01:15:58:970
01:22:06.046 : en:(11)01:22:06:046
01:29:00.417 : en:(12)01:29:00:417
01:38:00.749 : en:(13)01:38:00:749
01:43:19.192 : en:(14)01:43:19:192
01:57:56.611 : en:(15)01:57:56:611
02:09:26.550 : en:(16)02:09:26:550
02:22:33.127 : en:(17)02:22:33:127

Голодные игры: И вспыхнет пламя - 2013 | IMAX edition

Голодные игры: И вспыхнет пламя
«Помни, кто твой настоящий враг»
Год выпуска: 2013
Жанр: фантастика, боевик, триллер, приключения
Выпущено: США | Color Force, Karno's Film
Режиссер: Фрэнсис Лоуренс
В ролях: Дженнифер Лоуренс, Джош Хатчерсон, Лиам Хемсворт, Вуди Харрельсон, Сэм Клафлин, Джеффри Райт, Джена Мэлоун, Элизабет Бэнкс, Дональд Сазерленд, Филип Сеймур Хоффман
О фильме:
Сумев выжить на безжалостных Голодных играх, Китнисс Эвердин и Пит Мелларк возвращаются домой. Но теперь они в еще большей опасности, так как своим отказом играть по правилам на Арене бросили вызов Капитолию. По традиции следующие, юбилейные, Голодные игры должны стать особенными, и в этот раз в них участвуют только победители прошлых лет. Китнисс и Пит вынуждены вновь выйти на Арену, где будут соперничать с сильнейшими. Правила игры меняются. Арена еще опасней, масштаб еще больше, ставки еще выше!

Качество: BDRip 1080p
Видео: AVC, 1920x1080 (16:9), 23,976 fps, 7108 Kbit/s (0.143 bit/pixel)
Аудио:#1 русский, AC3, 5.1, 48 kHz, 640 kbps CBR
Аудио:#2 английский, DTS-HD MA, 5.1, 48 kHz, 1509 kbps CBR
Продолжительность: 02:26:14
Перевод: Дублированный | Лицензия
Субтитры: Отсутствуют

Скриншоты

MediaInfo

General
Unique ID : 206121270535289898316151904800390649700 (0x9B118340F4D56EC39BB30DAB18A61764)
Complete name : E:\GF\The Hunger Games Quadrilogy\The.Hunger.Games.Catching.Fire.IMAX.Edition.2013.BDRip.1080p.Rip.by.HardwareMining.R.G.Generalfilm.mkv
Format : Matroska
Format version : Version 2
File size : 13.0 GiB
Duration : 2 h 26 min
Overall bit rate mode : Variable
Overall bit rate : 12.8 Mb/s
Frame rate : 23.976 FPS
Movie name : The.Hunger.Games.Catching.Fire.IMAX.Edition.2013.BDRip.1080p.Rip.by.HardwareMining.R.G.Generalfilm
Encoded date : 2024-02-25 14:14:55 UTC
Writing application : mkvmerge v5.0.1 ('Es ist Sommer') built on Oct 9 2011 11:55:43
Writing library : libebml v1.2.2 + libmatroska v1.3.0
Cover : Yes
Attachments : cover.png
Video
ID : 1
Format : AVC
Format/Info : Advanced Video Codec
Format profile : High@L4.1
Format settings : CABAC / 4 Ref Frames
Format settings, CABAC : Yes
Format settings, Reference frames : 4 frames
Muxing mode : Header stripping
Codec ID : V_MPEG4/ISO/AVC
Duration : 2 h 26 min
Nominal bit rate : 7 108 kb/s
Width : 1 920 pixels
Height : 1 080 pixels
Display aspect ratio : 16:9
Frame rate mode : Constant
Frame rate : 23.976 (24000/1001) FPS
Color space : YUV
Chroma subsampling : 4:2:0
Bit depth : 8 bits
Scan type : Progressive
Bits/(Pixel*Frame) : 0.143
Writing library : x264 core 148 r2638 7599210
Encoding settings : cabac=1 / ref=4 / deblock=1:-2:-1 / analyse=0x3:0x113 / me=umh / subme=10 / psy=1 / psy_rd=0.00:0.15 / mixed_ref=1 / me_range=32 / chroma_me=1 / trellis=2 / 8x8dct=1 / cqm=0 / deadzone=21,11 / fast_pskip=0 / chroma_qp_offset=-3 / threads=34 / lookahead_threads=3 / sliced_threads=0 / nr=0 / decimate=0 / interlaced=0 / bluray_compat=0 / constrained_intra=0 / bframes=4 / b_pyramid=2 / b_adapt=2 / b_bias=0 / direct=1 / weightb=1 / open_gop=0 / weightp=2 / keyint=240 / keyint_min=23 / scenecut=40 / intra_refresh=0 / rc_lookahead=40 / rc=2pass / mbtree=0 / bitrate=7108 / ratetol=1.0 / qcomp=0.65 / qpmin=0 / qpmax=69 / qpstep=4 / cplxblur=20.0 / qblur=0.5 / vbv_maxrate=50000 / vbv_bufsize=65500 / nal_hrd=none / filler=0 / ip_ratio=1.40 / pb_ratio=1.30 / aq=1:2.00
Language : English
Default : Yes
Forced : No
Audio #1
ID : 2
Format : AC-3
Format/Info : Audio Coding 3
Commercial name : Dolby Digital
Muxing mode : Header stripping
Codec ID : A_AC3
Duration : 2 h 26 min
Bit rate mode : Constant
Bit rate : 640 kb/s
Channel(s) : 6 channels
Channel layout : L R C LFE Ls Rs
Sampling rate : 48.0 kHz
Frame rate : 31.250 FPS (1536 SPF)
Compression mode : Lossy
Stream size : 669 MiB (5%)
Title : Dub | Лицензия
Language : Russian
Service kind : Complete Main
Default : Yes
Forced : Yes
Audio #2
ID : 3
Format : DTS XLL
Format/Info : Digital Theater Systems
Commercial name : DTS-HD Master Audio
Muxing mode : Header stripping
Codec ID : A_DTS
Duration : 2 h 26 min
Bit rate mode : Variable
Channel(s) : 6 channels
Channel(s)_Original : 8 channels
ChannelLayout_Original : C L R LFE Lb Rb Lss Rss
Sampling rate : 48.0 kHz
Frame rate : 93.750 FPS (512 SPF)
Bit depth : 24 bits
Compression mode : Lossless
Title : Original
Language : English
Default : No
Forced : No
Menu
00:00:00.000 : en:(01)00:00:00:000
00:10:48.731 : en:(02)00:10:48:731
00:17:34.344 : en:(03)00:17:34:344
00:26:47.564 : en:(04)00:26:47:564
00:32:59.852 : en:(05)00:32:59:852
00:42:21.622 : en:(06)00:42:21:622
00:51:07.105 : en:(07)00:51:07:105
00:58:10.570 : en:(08)00:58:10:570
01:03:54.205 : en:(09)01:03:54:205
01:11:13.435 : en:(10)01:11:13:435
01:22:50.006 : en:(11)01:22:50:006
01:33:18.551 : en:(12)01:33:18:551
01:45:07.342 : en:(13)01:45:07:342
01:55:40.516 : en:(14)01:55:40:516
02:08:11.558 : en:(15)02:08:11:558
02:17:21.149 : en:(16)02:17:21:149

Голодные игры: Сойка-пересмешница. Часть I - 2014

Голодные игры: Сойка-пересмешница. Часть I
«Храбрость одного изменит мир» Год выпуска: 2014
Жанр: фантастика, боевик, триллер, приключения
Выпущено: США, Канада, Франция | Canadian Film or Video Production Tax Credit (CPTC), Color Force, French Tax Credit, Karno's Film
Режиссер: Фрэнсис Лоуренс
В ролях: Дженнифер Лоуренс, Лиам Хемсворт, Джош Хатчерсон, Джулианна Мур, Филип Сеймур Хоффман, Дональд Сазерленд, Вуди Харрельсон, Элизабет Бэнкс, Натали Дормер, Сэм Клафлин
О фильме:
75-ые Голодные игры изменили все. Китнисс нарушила правила, и непоколебимое до той поры деспотичное правление Капитолия пошатнулось. У людей появилась надежда, и ее символ – Сойка-пересмешница. Теперь, чтобы освободить захваченного в плен Пита и защитить своих близких, Китнисс придется сражаться в настоящих битвах и стать еще сильнее, чем на арене игр.

Качество: BDRip 1080p
Видео: AVC, 1920x800 (2.40:1), 23,976 fps, 7120 Kbit/s (0.193 bit/pixel)
Аудио:#1 русский, AC3, 5.1, 48 kHz, 640 kbps CBR
Аудио:#2 английский, DTS-HD MA, 5.1, 48 kHz, 1509 kbps CBR
Продолжительность: 02:03:22
Перевод: Дублированный | Лицензия
Субтитры: Русские | Forced

Скриншоты

MediaInfo

General
Unique ID : 224163223410516372425540836525175047524 (0xA8A4443563DC205CA08718AC7E218564)
Complete name : E:\GF\The Hunger Games Quadrilogy\The.Hunger.Games.Mockingjay - Part 1.2014.BDRip.1080p.Rip.by.HardwareMining.R.G.Generalfilm.mkv
Format : Matroska
Format version : Version 2
File size : 10.9 GiB
Duration : 2 h 3 min
Overall bit rate mode : Variable
Overall bit rate : 12.6 Mb/s
Frame rate : 23.976 FPS
Movie name : The.Hunger.Games.Mockingjay - Part 1.2014.BDRip.1080p.Rip.by.HardwareMining.R.G.Generalfilm
Encoded date : 2024-02-25 16:39:40 UTC
Writing application : mkvmerge v5.0.1 ('Es ist Sommer') built on Oct 9 2011 11:55:43
Writing library : libebml v1.2.2 + libmatroska v1.3.0
Cover : Yes
Attachments : cover.png
Video
ID : 1
Format : AVC
Format/Info : Advanced Video Codec
Format profile : High@L4.1
Format settings : CABAC / 5 Ref Frames
Format settings, CABAC : Yes
Format settings, Reference frames : 5 frames
Muxing mode : Header stripping
Codec ID : V_MPEG4/ISO/AVC
Duration : 2 h 3 min
Nominal bit rate : 7 120 kb/s
Width : 1 920 pixels
Height : 800 pixels
Display aspect ratio : 2.40:1
Frame rate mode : Constant
Frame rate : 23.976 (24000/1001) FPS
Color space : YUV
Chroma subsampling : 4:2:0
Bit depth : 8 bits
Scan type : Progressive
Bits/(Pixel*Frame) : 0.193
Writing library : x264 core 148 r2638 7599210
Encoding settings : cabac=1 / ref=5 / deblock=1:-2:-1 / analyse=0x3:0x113 / me=umh / subme=10 / psy=1 / psy_rd=0.00:0.15 / mixed_ref=1 / me_range=32 / chroma_me=1 / trellis=2 / 8x8dct=1 / cqm=0 / deadzone=21,11 / fast_pskip=0 / chroma_qp_offset=-3 / threads=25 / lookahead_threads=2 / sliced_threads=0 / nr=0 / decimate=0 / interlaced=0 / bluray_compat=0 / constrained_intra=0 / bframes=4 / b_pyramid=2 / b_adapt=2 / b_bias=0 / direct=1 / weightb=1 / open_gop=0 / weightp=2 / keyint=240 / keyint_min=23 / scenecut=40 / intra_refresh=0 / rc_lookahead=40 / rc=2pass / mbtree=0 / bitrate=7120 / ratetol=1.0 / qcomp=0.65 / qpmin=0 / qpmax=69 / qpstep=4 / cplxblur=20.0 / qblur=0.5 / vbv_maxrate=50000 / vbv_bufsize=65500 / nal_hrd=none / filler=0 / ip_ratio=1.40 / pb_ratio=1.30 / aq=1:2.00
Language : English
Default : Yes
Forced : No
Audio #1
ID : 2
Format : AC-3
Format/Info : Audio Coding 3
Commercial name : Dolby Digital
Muxing mode : Header stripping
Codec ID : A_AC3
Duration : 2 h 3 min
Bit rate mode : Constant
Bit rate : 640 kb/s
Channel(s) : 6 channels
Channel layout : L R C LFE Ls Rs
Sampling rate : 48.0 kHz
Frame rate : 31.250 FPS (1536 SPF)
Compression mode : Lossy
Stream size : 565 MiB (5%)
Title : Dub | Лицензия
Language : Russian
Service kind : Complete Main
Default : Yes
Forced : Yes
Audio #2
ID : 3
Format : DTS ES XLL
Format/Info : Digital Theater Systems
Commercial name : DTS-HD Master Audio
Muxing mode : Header stripping
Codec ID : A_DTS
Duration : 2 h 3 min
Bit rate mode : Variable
Channel(s) : 6 channels
Channel(s)_Original : 8 channels
ChannelLayout_Original : C L R LFE Lb Rb Lss Rss
Sampling rate : 48.0 kHz
Frame rate : 93.750 FPS (512 SPF)
Bit depth : 24 bits
Compression mode : Lossless
Title : Original
Language : English
Default : No
Forced : No
Text
ID : 4
Format : UTF-8
Codec ID : S_TEXT/UTF8
Codec ID/Info : UTF-8 Plain Text
Title : Forced
Language : Russian
Default : Yes
Forced : No
Menu
00:00:00.000 : en:00:00:00.000
00:03:27.958 : en:00:03:27.958
00:06:57.834 : en:00:06:57.834
00:08:19.541 : en:00:08:19.541
00:11:58.593 : en:00:11:58.593
00:15:01.484 : en:00:15:01.484
00:18:13.509 : en:00:18:13.509
00:19:56.737 : en:00:19:56.737
00:21:43.093 : en:00:21:43.093
00:23:53.849 : en:00:23:53.849
00:28:34.880 : en:00:28:34.880
00:31:32.516 : en:00:31:32.516
00:34:39.077 : en:00:34:39.077
00:40:51.199 : en:00:40:51.199
00:44:37.383 : en:00:44:37.383
00:46:57.815 : en:00:46:57.815
00:49:19.707 : en:00:49:19.707
00:54:13.333 : en:00:54:13.333
01:00:06.686 : en:01:00:06.686
01:03:16.209 : en:01:03:16.209
01:06:08.715 : en:01:06:08.715
01:12:56.998 : en:01:12:56.998
01:15:13.008 : en:01:15:13.008
01:19:54.456 : en:01:19:54.456
01:21:56.120 : en:01:21:56.120
01:27:24.156 : en:01:27:24.156
01:28:12.537 : en:01:28:12.537
01:33:28.561 : en:01:33:28.561
01:39:34.510 : en:01:39:34.510
01:46:26.714 : en:01:46:26.714
01:50:46.515 : en:01:50:46.515
01:56:40.619 : en:01:56:40.619
01:59:06.097 : en:01:59:06.097

Голодные игры: Сойка-пересмешница. Часть II - 2015

Голодные игры: Сойка-пересмешница. Часть II
«Да не угаснет пламя» Год выпуска: 2015
Жанр: фантастика, боевик, триллер, приключения
Выпущено: США, Германия, Канада, Франция | Color Force, Karno's Film, Studio Babelsberg
Режиссер: Фрэнсис Лоуренс
В ролях: Дженнифер Лоуренс, Джош Хатчерсон, Лиам Хемсворт, Вуди Харрельсон, Дональд Сазерленд, Филип Сеймур Хоффман, Джулианна Мур, Уиллоу Шилдс, Сэм Клафлин, Элизабет Бэнкс, Махершала Али, Джена Мэлоун, Джеффри Райт, Паула Малкомсон, Стэнли Туччи, Натали Дормер, Ивэн Росс, Элден Хенсон, Уэс Чэтэм, Эжени Бондюран
О фильме:
Китнисс Эвердин и своенравный Пит Мелларк пытаются выиграть гражданскую войну между самодержавным Капитолием и истерзанными войной районами Панема...

Качество: BDRip 1080p
Видео: AVC, 1920x800 (2.40:1), 23,976 fps, 7024 Kbit/s (0.191 bit/pixel)
Аудио:#1 русский, AC3, 5.1, 48 kHz, 384 kbps CBR
Аудио:#2 английский, DTS-HD MA, 5.1, 48 kHz, 1509 kbps CBR
Продолжительность: 02:16:57
Перевод: Дублированный | iTunes
Субтитры: Отсутствуют

Скриншоты

MediaInfo

General
Unique ID : 223195832868613877747057007602598335092 (0xA7E9F42C21F737299EB899950E4AD274)
Complete name : E:\GF\The Hunger Games Quadrilogy\The.Hunger.Games.Mockingjay.Part.2.2015.BDRip.1080p.Rip.by.HardwareMining.R.G.Generalfilm.mkv
Format : Matroska
Format version : Version 2
File size : 10.4 GiB
Duration : 2 h 16 min
Overall bit rate mode : Variable
Overall bit rate : 10.9 Mb/s
Frame rate : 23.976 FPS
Movie name : The.Hunger.Games.Mockingjay.Part.2.2015.BDRip.1080p.Rip.by.HardwareMining.R.G.Generalfilm
Encoded date : 2024-02-27 15:38:03 UTC
Writing application : mkvmerge v5.0.1 ('Es ist Sommer') built on Oct 9 2011 11:55:43
Writing library : libebml v1.2.2 + libmatroska v1.3.0
Cover : Yes
Attachments : cover0.png
Video
ID : 1
Format : AVC
Format/Info : Advanced Video Codec
Format profile : High@L4.1
Format settings : CABAC / 5 Ref Frames
Format settings, CABAC : Yes
Format settings, Reference frames : 5 frames
Muxing mode : Header stripping
Codec ID : V_MPEG4/ISO/AVC
Duration : 2 h 16 min
Nominal bit rate : 7 024 kb/s
Width : 1 920 pixels
Height : 800 pixels
Display aspect ratio : 2.40:1
Frame rate mode : Constant
Frame rate : 23.976 (24000/1001) FPS
Color space : YUV
Chroma subsampling : 4:2:0
Bit depth : 8 bits
Scan type : Progressive
Bits/(Pixel*Frame) : 0.191
Writing library : x264 core 148 r2638 7599210
Encoding settings : cabac=1 / ref=5 / deblock=1:-2:-1 / analyse=0x3:0x113 / me=umh / subme=10 / psy=1 / psy_rd=0.00:0.15 / mixed_ref=1 / me_range=32 / chroma_me=1 / trellis=2 / 8x8dct=1 / cqm=0 / deadzone=21,11 / fast_pskip=0 / chroma_qp_offset=-3 / threads=25 / lookahead_threads=2 / sliced_threads=0 / nr=0 / decimate=0 / interlaced=0 / bluray_compat=0 / constrained_intra=0 / bframes=4 / b_pyramid=2 / b_adapt=2 / b_bias=0 / direct=1 / weightb=1 / open_gop=0 / weightp=2 / keyint=240 / keyint_min=23 / scenecut=40 / intra_refresh=0 / rc_lookahead=40 / rc=2pass / mbtree=0 / bitrate=7024 / ratetol=1.0 / qcomp=0.65 / qpmin=0 / qpmax=69 / qpstep=4 / cplxblur=20.0 / qblur=0.5 / vbv_maxrate=50000 / vbv_bufsize=65500 / nal_hrd=none / filler=0 / ip_ratio=1.40 / pb_ratio=1.30 / aq=1:2.00
Language : English
Default : Yes
Forced : No
Audio #1
ID : 2
Format : AC-3
Format/Info : Audio Coding 3
Commercial name : Dolby Digital
Muxing mode : Header stripping
Codec ID : A_AC3
Duration : 2 h 16 min
Bit rate mode : Constant
Bit rate : 384 kb/s
Channel(s) : 6 channels
Channel layout : L R C LFE Ls Rs
Sampling rate : 48.0 kHz
Frame rate : 31.250 FPS (1536 SPF)
Compression mode : Lossy
Stream size : 376 MiB (4%)
Title : Dub | iTunes
Language : Russian
Service kind : Complete Main
Default : Yes
Forced : No
Audio #2
ID : 3
Format : DTS XLL
Format/Info : Digital Theater Systems
Commercial name : DTS-HD Master Audio
Muxing mode : Header stripping
Codec ID : A_DTS
Duration : 2 h 16 min
Bit rate mode : Variable
Channel(s) : 6 channels
Channel(s)_Original : 8 channels
ChannelLayout_Original : C L R LFE Lb Rb Lss Rss
Sampling rate : 48.0 kHz
Frame rate : 93.750 FPS (512 SPF)
Bit depth : 24 bits
Compression mode : Lossless
Title : Оригинал
Language : English
Default : No
Forced : No
Menu
00:00:00.000 : en:00:00:00.000
00:07:39.042 : en:00:07:39.042
00:16:49.217 : en:00:16:49.217
00:24:46.985 : en:00:24:46.985
00:31:59.960 : en:00:31:59.960
00:37:11.688 : en:00:37:11.688
00:46:42.717 : en:00:46:42.717
00:55:00.881 : en:00:55:00.881
01:02:46.429 : en:01:02:46.429
01:09:27.497 : en:01:09:27.497
01:18:42.968 : en:01:18:42.968
01:29:51.136 : en:01:29:51.136
01:37:08.239 : en:01:37:08.239
01:49:01.785 : en:01:49:01.785
01:56:55.759 : en:01:56:55.759
02:03:33.239 : en:02:03:33.239
Релиз от:
[Profile] [PM]
Display posts:    
Reply to topic

Current time is: 24-Apr 08:17

All times are UTC + 3



You cannot post new topics in this forum
You cannot reply to topics in this forum
You cannot edit your posts in this forum
You cannot delete your posts in this forum
You cannot vote in polls in this forum
You cannot attach files in this forum
You cannot download files in this forum