Одна жизнь / One Life (2023) BDRip 1080p | Paragraph Media

Reply to topic
 
Author Message

HardwareMining ®

Gender: Male

Longevity: 4 years 8 months

Posts: 626

Post 25-May-2024 07:05

[Quote]

Одна жизнь / One Life
«Основано на реальной истории невидимого подвига, потрясшего мир» Год выпуска: 2023
Жанр: драма, биография, история
Выпущено: Великобритания | BBC Films, MBK Productions, See-Saw Films
Режиссер: Джеймс Хоуз
В ролях: Энтони Хопкинс, Хелена Бонем Картер, Джонни Флинн, Лена Олин, Тим Стид, Матильда Торпе, Дэниэл Браун, Алекс Шарп, Иржи Симек, Ромола Гарай
О фильме:
Скромного и непубличного джентльмена Николаса Уинтона приглашают на телевизионное ток-шоу, где он наконец-то узнает всю правду о событиях Второй мировой войны, когда он пытался спасти сотни детей от гибели в концлагере. Одна жизнь может изменить судьбы сотен людей — как в прошлом, так и в настоящем.

Качество: BDRip 1080p
Видео: AVC, 1920x872 (2.2:1), 24 fps, 13.0 Mb/s (0.324 bit/pixel)
Аудио: русский, AC3, 5.1, 48 kHz, 448 kbps CBR
Продолжительность: 01:49:01
Перевод: Дублированный | Paragraph Media
Субтитры: Русские | Forced

Скриншоты

MediaInfo

General
Unique ID : 200799789013088861879855676803625265948 (0x9710A1F543CD8FABA35E5F52D31C2B1C)
Complete name : E:\GF\One.Life.2023.BDRip.1080p.Rip.by.HardwareMining.R.G.Generalfilm.mkv
Format : Matroska
Format version : Version 4
File size : 10.2 GiB
Duration : 1 h 49 min
Overall bit rate : 13.5 Mb/s
Frame rate : 24.000 FPS
Movie name : One.Life.2023.BDRip.1080p.Rip.by.HardwareMining.R.G.Generalfilm
Encoded date : 2024-05-23 15:55:21 UTC
Writing application : mkvmerge v6.8.0 ('Theme for Great Cities') 32bit built on Mar 2 2014 21:27:07
Writing library : libebml v1.3.0 + libmatroska v1.4.1
Cover : Yes
Attachments : cover.png
Video
ID : 1
Format : AVC
Format/Info : Advanced Video Codec
Format profile : High@L4.1
Format settings : CABAC / 4 Ref Frames
Format settings, CABAC : Yes
Format settings, Reference frames : 4 frames
Codec ID : V_MPEG4/ISO/AVC
Duration : 1 h 49 min
Bit rate : 13.0 Mb/s
Width : 1 920 pixels
Height : 872 pixels
Display aspect ratio : 2.2:1
Frame rate mode : Constant
Frame rate : 24.000 FPS
Color space : YUV
Chroma subsampling : 4:2:0
Bit depth : 8 bits
Scan type : Progressive
Bits/(Pixel*Frame) : 0.324
Stream size : 9.70 GiB (95%)
Writing library : x264 core 130 r2273 b3065e6
Encoding settings : cabac=1 / ref=4 / deblock=1:-2:-1 / analyse=0x3:0x133 / me=umh / subme=10 / psy=1 / psy_rd=1.00:0.08 / mixed_ref=1 / me_range=32 / chroma_me=1 / trellis=2 / 8x8dct=1 / cqm=0 / deadzone=21,11 / fast_pskip=0 / chroma_qp_offset=-3 / threads=48 / lookahead_threads=6 / sliced_threads=0 / nr=0 / decimate=1 / interlaced=0 / bluray_compat=0 / constrained_intra=0 / bframes=11 / b_pyramid=2 / b_adapt=2 / b_bias=0 / direct=3 / weightb=1 / open_gop=0 / weightp=2 / keyint=250 / keyint_min=25 / scenecut=40 / intra_refresh=0 / rc=2pass / mbtree=0 / bitrate=13010 / ratetol=1.0 / qcomp=0.60 / qpmin=0 / qpmax=69 / qpstep=4 / cplxblur=20.0 / qblur=0.5 / ip_ratio=1.40 / pb_ratio=1.30 / aq=2:1.00
Language : English
Default : Yes
Forced : No
Color range : Limited
Color primaries : BT.709
Transfer characteristics : BT.709
Matrix coefficients : BT.709
Audio
ID : 2
Format : AC-3
Format/Info : Audio Coding 3
Commercial name : Dolby Digital
Codec ID : A_AC3
Duration : 1 h 49 min
Bit rate mode : Constant
Bit rate : 448 kb/s
Channel(s) : 6 channels
Channel layout : L R C LFE Ls Rs
Sampling rate : 48.0 kHz
Frame rate : 31.250 FPS (1536 SPF)
Compression mode : Lossy
Stream size : 349 MiB (3%)
Title : Dub | Paragraph Media
Language : Russian
Service kind : Complete Main
Default : Yes
Forced : No
Dialog Normalization : -28 dB
compr : -0.28 dB
cmixlev : -3.0 dB
surmixlev : -3 dB
mixlevel : 285 dB
roomtyp : 3
ltrtcmixlev : -3.0 dB
ltrtsurmixlev : -3.0 dB
lorocmixlev : -3.0 dB
lorosurmixlev : -4.5 dB
dialnorm_Average : -28 dB
dialnorm_Minimum : -28 dB
dialnorm_Maximum : -28 dB
Text
ID : 3
Format : UTF-8
Codec ID : S_TEXT/UTF8
Codec ID/Info : UTF-8 Plain Text
Title : Forced
Language : Russian
Default : Yes
Forced : No
Menu
00:00:00.000 : en:Chapter 01
00:14:39.541 : en:Chapter 02
00:30:15.583 : en:Chapter 03
00:45:29.291 : en:Chapter 04
01:00:30.916 : en:Chapter 05
01:14:03.166 : en:Chapter 06
01:29:29.208 : en:Chapter 07
01:41:47.083 : en:Chapter 08
Релиз от:
Related releases "Одна жизнь" (1):
Added Topic title Size
5 Jan 24  Одна жизнь (2023) WEBRip от Generalfilm | КПК 336 MB
Find all related releases Одна жизнь
[Profile] [PM]
Display posts:    
Reply to topic

Current time is: 24-Jun 07:20

All times are UTC + 3



You cannot post new topics in this forum
You cannot reply to topics in this forum
You cannot edit your posts in this forum
You cannot delete your posts in this forum
You cannot vote in polls in this forum
You cannot attach files in this forum
You cannot download files in this forum